X

Привет, дорогой друг!

У тебя установлено расширение AdBlock или подобное. Добавь наш сайт в белый список, и тем самым внесешь свой вклад в его развитие. Инструкция как отключить AdBlock
Регистрация ·
Имя: Пароль:  
· Забыли пароль?
 FREELEECH СКАЧАННОЕ НЕ УЧИТЫВАЕТСЯ! 


Головар (2018) WEB-DLRip

Ответить на тему
 
Автор

Сообщение

dybrik13 ®

Пол: Мужской

Стаж: 4 месяца 25 дней

Сообщений: 738

Репутация: 8285

[+] [-]

Откуда: Киев



Награды: 6 (Подробнее)

500 messages (Количество: 1) 500 releases (Количество: 1) Active moderator (Количество: 1)

Вне форума

[Профиль] [ЛС]

Создавать темы 11-Окт-2018 07:50

[Цитировать]

Головар- Производство: Россия / M55
Жанр: Драма, криминал
Режиссер: Юрий Ботоев
Актеры: Владимир Банчиков, Светлана Полянская, Владимир Барташевич, Артур Шувалов, Владимир Срабионов, Рина Жеребко, Алексей Туробов, Игорь Озеров, Владислав Самарин, Елена Ершова-Налаженная жизнь, успешный нефритовый бизнес — все это было, пока главный герой не попал в ситуацию, которая поглотила его и всю его семью в трагические обстоятельства. Человек, который, казалось бы, может купить все, что угодно, в том, числе власть, оказывается бессилен перед чередой случайных событий. Потеряв, близкого человека, он решается на отчаянный шаг.
Возраст: 16+ (зрителям, достигшим 16 лет)
Дата премьеры в России: 5 апреля 2018
Продолжительность: 01:32:17
Качество видео: WEB-DLRip
Перевод: Не требуется (Русский)
Субтитры: Отсутствуют
Видео: XviD, 720x304, ~1924 Kbps
Аудио: AC-3, 2 ch, 192 Kbps

Тех. данные видеофайла

Общее
Полное имя : E:\NNM\Головар\Golovar 2018 WEB-DLRip.avi
Формат : AVI
Формат/Информация : Audio Video Interleave
Размер файла : 1,37 Гбайт
Продолжительность : 1 ч. 32 м.
Общий поток : 2125 Кбит/сек
Программа кодирования : VirtualDubMod 1.5.10.3 | www.virtualdub-fr.org || (build 2550/release)
Библиотека кодирования : VirtualDubMod build 2550/release
Видео
Идентификатор : 0
Формат : MPEG-4 Visual
Профиль формата : Advanced Simple@L5
Настройки формата : BVOP1 / Custom Matrix
Параметр BVOP формата : 1
Параметр QPel формата : Нет
Параметр GMC формата : Без точки перехода
Параметр матрицы формата : Выборочная
Идентификатор кодека : XVID
Идентификатор кодека/Подсказка : XviD
Продолжительность : 1 ч. 32 м.
Битрейт : 1924 Кбит/сек
Ширина : 720 пикселей
Высота : 304 пикселя
Соотношение сторон : 2,35:1
Частота кадров : 24,000 кадра/сек
Цветовое пространство : YUV
Субдискретизация насыщенности : 4:2:0
Битовая глубина : 8 бит
Тип развёртки : Прогрессивная
Метод сжатия : С потерями
Бит/(Пиксели*Кадры) : 0.366
Размер потока : 1,24 Гбайт (91%)
Библиотека кодирования : XviD 73
Аудио
Идентификатор : 1
Формат : AC-3
Формат/Информация : Audio Coding 3
Идентификатор кодека : 2000
Продолжительность : 1 ч. 32 м.
Вид битрейта : Постоянный
Битрейт : 192 Кбит/сек
Каналы : 2 канала
Расположение каналов : Front: L R
Частота : 48,0 КГц
Частота кадров : 31,250 кадров/сек (1536 SPF)
Битовая глубина : 16 бит
Метод сжатия : С потерями
Размер потока : 127 Мбайт (9%)
Выравнивание : Разделение по промежуткам
Продолжительность промежутка : 42 мс. (1,00 видеокадр)
Время предзагрузки промежутка : 500 мс.
ServiceKind/String : Complete Main
Скриншоты:

 

Создавать темы 21-Окт-2018 11:27 (спустя 10 дней)

Топик был перенесен из форума Российские Фильмы CAMRip, TS, DVDScr, WEBRip, SATRip в форум Тестовые раздачи
Rtuty
Показать сообщения:    
Ответить на тему

Текущее время: 21-Ноя 06:34

Часовой пояс: UTC ± 0



Вы не можете начинать темы
Вы не можете отвечать на сообщения
Вы не можете редактировать свои сообщения
Вы не можете удалять свои сообщения
Вы не можете голосовать в опросах
Вы не можете прикреплять файлы к сообщениям
Вы не можете скачивать файлы