X

Привет, дорогой друг!

У тебя установлено расширение AdBlock или подобное. Добавь наш сайт в белый список, и тем самым внесешь свой вклад в его развитие. Инструкция как отключить AdBlock
Регистрация ·
Имя: Пароль:  
· Забыли пароль?
 FREELEECH СКАЧАННОЕ НЕ УЧИТЫВАЕТСЯ! 


Три богатыря и принцесса Египта (Константин Феоктистов) [2017, Россия, мультфильм, приключения, семейный, фэнтези, BDRip 720p] + Sub Eng

Ответить на тему
 
Автор

Сообщение

Magnat ®

Пол: Мужской

Стаж: 2 месяца 3 дня

Сообщений: 458

Репутация: 9535

[+] [-]

Откуда: CCCP



Награды: 4 (Подробнее)

300 messages (Количество: 1) 400 releases (Количество: 1) Meloman (Количество: 1)

Вне форума

[Профиль] [ЛС]

Создавать темы 22-Окт-2018 20:16

[Цитировать]

Три богатыря и принцесса Египта
Страна: Россия
Жанр: мультфильм, приключения, семейный, фэнтези
Продолжительность: 01:08:43
Год выпуска: 2017
Перевод: Не требуется
Русские субтитры: нет--Режиссёр: Константин Феоктистов--Роли озвучивали: Олег Куликович, Валерий Соловьёв, Дмитрий Быковский-Ромашов, Сергей Маковецкий, Дмитрий Высоцкий, Александр Быковский, Елена Шульман, Лия Медведева, Мария Цветкова-Овсянникова, Анатолий Петров...--Описание: В новогоднюю ночь, в то время, как Князь готовится произнести торжественную речь, а Юлий распаковывает подарки и следит за приготовлением праздничного стола, богатыри едут в гости к Алеше, и встречают там странного товарища по имени Дурило. Оказывается, это тринадцатый месяц, который никому особенно не нужен, и который пытается осуществить свое заветное желание — стать самым главным месяцем в году. Только и надо ему, что притвориться Дедом Морозом, показать доверчивому Алеше пару фокусов, подружиться с богатырями и оказаться в Египте — стране фараонов и древних пирамид. А дальше — пирамиды, заклинание, Древний огонь — и дело в шляпе! Но не так-то просто осуществить свое коварное желание, когда на пути у тебя встают не только три богатыри, но и их жены, Князь и Юлий, Змей Горыныч и Дед Мороз и даже — сама принцесса Нефертити!
Качество: BDRip 720p
Формат: MKV
Видео: AVC, 1280x720 (16:9), 24.000 fps, 3110 Kbps, 0.141 bit/pixel
Аудио: AC3 Dolby Digital, 3/2 (L,C,R,l,r) + LFE ch, 48 kHz, 640 kbps
Субтитры: Английские

Скриншоты

Подробные технические данные

[box]x264 [info]: frame I:1373 Avg QP:11.58 size:117448
x264 [info]: frame P:27807 Avg QP:14.91 size: 28116
x264 [info]: frame B:74156 Avg QP:17.28 size: 9850
x264 [info]: consecutive B-frames: 4.9% 4.4% 11.2% 45.1% 18.4% 9.6% 2.3% 1.4% 0.9%[/box]
General
Unique ID : 181536402894888355464369176493211802759 (0x8892A3B1E442F9F18F790D24CE705C87)
Complete name : Три богатыря и принцесса Египта (2017).mkv
Format : Matroska
Format version : Version 4 / Version 2
File size : 1.88 GiB
Duration : 1 h 11 min
Overall bit rate : 3 751 kb/s
Movie name : Три богатыря и принцесса Египта (2017)
Encoded date : UTC 2018-03-28 13:14:57
Writing application : mkvmerge v8.1.0 ('Psychedelic Postcard') 64bit
Writing library : libebml v1.3.1 + libmatroska v1.4.2
Video
ID : 1
Format : AVC
Format/Info : Advanced Video Codec
Format profile : High@L4.1
Format settings : CABAC / 9 Ref Frames
Format settings, CABAC : Yes
Format settings, ReFrames : 9 frames
Codec ID : V_MPEG4/ISO/AVC
Duration : 1 h 11 min
Bit rate : 3 109 kb/s
Width : 1 280 pixels
Height : 720 pixels
Display aspect ratio : 16:9
Frame rate mode : Constant
Frame rate : 24.000 FPS
Color space : YUV
Chroma subsampling : 4:2:0
Bit depth : 8 bits
Scan type : Progressive
Bits/(Pixel*Frame) : 0.141
Stream size : 1.56 GiB (83%)
Title : Три богатыря и принцесса Египта (2017) By optik.1557
Writing library : x264 core 155 r2901 7d0ff22
Encoding settings : cabac=1 / ref=9 / deblock=1:-3:-2 / analyse=0x3:0x113 / me=umh / subme=10 / psy=1 / psy_rd=1.05:0.01 / mixed_ref=1 / me_range=32 / chroma_me=1 / trellis=2 / 8x8dct=1 / cqm=0 / deadzone=21,11 / fast_pskip=0 / chroma_qp_offset=-3 / threads=6 / lookahead_threads=1 / sliced_threads=0 / nr=0 / decimate=1 / interlaced=0 / bluray_compat=0 / constrained_intra=0 / bframes=8 / b_pyramid=2 / b_adapt=2 / b_bias=0 / direct=1 / weightb=1 / open_gop=0 / weightp=2 / keyint=250 / keyint_min=23 / scenecut=40 / intra_refresh=0 / rc_lookahead=60 / rc=crf / mbtree=0 / crf=17.4 / qcomp=0.70 / qpmin=0 / qpmax=69 / qpstep=4 / vbv_maxrate=50000 / vbv_bufsize=62500 / crf_max=0.0 / nal_hrd=none / filler=0 / ip_ratio=1.40 / pb_ratio=1.30 / aq=3:0.85
Language : English
Default : Yes
Forced : No
Color range : Limited
Color primaries : BT.709
Transfer characteristics : BT.709
Matrix coefficients : BT.709
Audio
ID : 2
Format : AC-3
Format/Info : Audio Coding 3
Codec ID : A_AC3
Duration : 1 h 11 min
Bit rate mode : Constant
Bit rate : 640 kb/s
Channel(s) : 6 channels
Channel positions : Front: L C R, Side: L R, LFE
Sampling rate : 48.0 kHz
Frame rate : 31.250 FPS (1536 SPF)
Bit depth : 16 bits
Compression mode : Lossy
Stream size : 328 MiB (17%)
Language : Russian
Service kind : Complete Main
Default : Yes
Forced : No
Text
ID : 3
Format : UTF-8
Codec ID : S_TEXT/UTF8
Codec ID/Info : UTF-8 Plain Text
Duration : 1 h 9 min
Bit rate : 43 b/s
Count of elements : 582
Stream size : 22.0 KiB (0%)
Language : English
Default : No
Forced : No
Menu
00:00:00.000 : en:Chapter 1
00:05:17.041 : en:Chapter 2
00:11:43.625 : en:Chapter 3
00:18:26.208 : en:Chapter 4
00:22:34.500 : en:Chapter 5
00:29:53.041 : en:Chapter 6
00:37:39.083 : en:Chapter 7
00:44:21.250 : en:Chapter 8
00:50:17.541 : en:Chapter 9
00:56:49.416 : en:Chapter 10
01:01:27.625 : en:Chapter 11
01:05:53.666 : en:Chapter 12

 

Создавать темы 22-Окт-2018 21:13 (спустя 56 минут)

Топик был перенесен из форума Российские Мультфильмы за 2018 в форум Российские Мультфильмы за 2017
Rtuty
Показать сообщения:    
Ответить на тему

Текущее время: 20-Ноя 07:53

Часовой пояс: UTC ± 0



Вы не можете начинать темы
Вы не можете отвечать на сообщения
Вы не можете редактировать свои сообщения
Вы не можете удалять свои сообщения
Вы не можете голосовать в опросах
Вы не можете прикреплять файлы к сообщениям
Вы не можете скачивать файлы