X

Привет, дорогой друг!

У тебя установлено расширение AdBlock или подобное. Добавь наш сайт в белый список, и тем самым внесешь свой вклад в его развитие. Инструкция как отключить AdBlock
Регистрация ·
Имя: Пароль:  
· Забыли пароль?
 FREELEECH СКАЧАННОЕ НЕ УЧИТЫВАЕТСЯ! 


Радиант / Radiant [01-05 из 21] (Сэйдзи Киси) [2018, Приключения, фэнтези, HDTVRip 720p] от AniMedia | L

Ответить на тему
 
Автор

Сообщение

Rtuty ®

Пол: Мужской

Стаж: 4 месяца 21 день

Сообщений: 555

Репутация: 556

[+] [-]

Награды: 4 (Подробнее)

Boss (Количество: 1) Meloman (Количество: 1) Prestige (Количество: 1)

Вне форума

[Профиль] [ЛС]

Создавать темы 05-Ноя-2018 15:07

[Цитировать]

Информация о фильме
Название: Радиант
Оригинальное название: Radiant
Страна: Япония
Год выхода: 2018
Жанр: Приключения, фэнтези
Режиссер: Сэйдзи Киси
О фильме: Паренёк по имени Сет лелеет мечту стать могущественным волшебником. Каждый день он занимается и тренируется, но пока что его мечта так и остаётся чем-то несбыточным, ведь неприятностей он приносит гораздо больше, чем пользы. Выслушивая постоянно упрёки от жителей деревни по поводу своего сына, Альма, приёмная мама Сета, ругает его беспрестанно. Но даже всеобщее разочарование не становится препятствием для безграничного оптимизма и веры в светлое будущее у этого мальчишки.А магия очень нужна, ведь над людьми постоянно нависает угроза со стороны Немезид, странных монстров, падающих прямо с неба. Однажды на деревню нападает гигантская Немезида и причиняет жителям огромный ущерб. Тогда Сет и Альма отправляются в странствие, чтобы отыскать гнездо, где живут и рождаются все Немезиды, а называется оно "Радиант”. Ведь чтобы устранить проблему, нужно рубить прямо на корню. Совсем скоро Сет перестанет быть никчёмной обузой, а спасёт от чудовищ не только свою деревню, но и целый мир. А пока, приключение только начинается!
Студия:
Продолжительность: ~ 00:24:00
Перевод: Любительский (многоголосый закадровый)
Озвучка: ArtLight & LolAlice & KingMaster
Тайминг и сведение звука: KingMaster
Сборка контейнера: Eugeo
Файл
Формат: mp4
Качество: HDTVRip 720p
Видео: H.264; 1280x720; ~ 2000 Kbps, 23.976fps; (8 bit)
Аудио 1: AAC 48000 Hz, 2.0, 192 kbps Язык Русский
Аудио 2: AAC 48000 Hz, 2.0, 192 kbps Язык Японский
Субтитры: (внешние ASS) Язык субтитров русский ; Перевод: [Crunchyroll]

Инфо-файл

Общее
Полное имя : F:AnimeRadiant_[AniMedia.TV]Radiant_[01]_[ArtLight & LolAlice & KingMaster.ass
Размер файла : 31,1 Кбайт
Общее
Полное имя : F:AnimeRadiant_[AniMedia.TV]Radiant_[01]_[ArtLight & LolAlice & KingMaster.mp4
Формат : MPEG-4
Профиль формата : Base Media
Идентификатор кодека : isom
Размер файла : 454 Мбайт
Продолжительность : 24 м.
Режим общего битрейта : Переменный
Общий поток : 2591 Кбит/сек
Дата кодирования : UTC 2018-10-06 18:47:52
Дата пометки : UTC 2018-10-06 18:47:52
Программа кодирования : Yamb 2.1.0.0 [http://yamb.unite-video.com]
Видео
Идентификатор : 1
Формат : AVC
Формат/Информация : Advanced Video Codec
Профиль формата : High@L4.1
Параметр CABAC формата : Да
Параметр ReFrames формата : 4 кадра
Идентификатор кодека : avc1
Идентификатор кодека/Информация : Advanced Video Coding
Продолжительность : 24 м.
Битрейт : 2203 Кбит/сек
Максимальный битрейт : 12,2 Мбит/сек
Ширина : 1280 пикселей
Высота : 720 пикселей
Соотношение сторон : 16:9
Режим частоты кадров : Постоянный
Частота кадров : 23,976 кадра/сек
Цветовое пространство : YUV
Субдискретизация насыщенности : 4:2:0
Битовая глубина : 8 бит
Тип развёртки : Прогрессивная
Бит/(Пиксели*Кадры) : 0.100
Размер потока : 386 Мбайт (85%)
Заголовок : 264
Библиотека кодирования : x264 core 129 r2245+729M 1a52e03
Настройки программы : cabac=1 / ref=4 / deblock=1:1:-1 / analyse=0x3:0x113 / me=umh / subme=9 / psy=1 / fade_compensate=0.00 / psy_rd=1.00:0.00 / mixed_ref=1 / me_range=24 / chroma_me=1 / trellis=2 / 8x8dct=1 / cqm=0 / deadzone=21,11 / fast_pskip=1 / chroma_qp_offset=-2 / threads=8 / lookahead_threads=1 / sliced_threads=0 / nr=0 / decimate=1 / interlaced=0 / bluray_compat=0 / constrained_intra=0 / fgo=0 / bframes=9 / b_pyramid=2 / b_adapt=2 / b_bias=0 / direct=1 / weightb=1 / open_gop=0 / weightp=2 / keyint=240 / keyint_min=24 / scenecut=40 / intra_refresh=0 / rc=crf / mbtree=0 / crf=18.5 / qcomp=0.72 / qpmin=0 / qpmax=69 / qpstep=4 / ip_ratio=1.40 / pb_ratio=1.30 / aq=1:0.85
Дата кодирования : UTC 2018-10-06 17:12:49
Дата пометки : UTC 2018-10-06 18:48:00
Цветовой диапазон : Limited
Основные цвета : BT.709
Характеристики трансфера : BT.709
Коэффициенты матрицы : BT.709
Аудио #1
Идентификатор : 2
Формат : AAC
Формат/Информация : Advanced Audio Codec
Профиль формата : LC
Идентификатор кодека : 40
Продолжительность : 24 м.
Вид битрейта : Переменный
Битрейт : 192 Кбит/сек
Максимальный битрейт : 200 Кбит/сек
Каналы : 2 канала
Расположение каналов : Front: L R
Частота : 48,0 КГц
Метод сжатия : С потерями
Размер потока : 33,6 Мбайт (7%)
Заголовок : ArtLight & LolAlice & KingMaster
Язык : Russian
Дата кодирования : UTC 2018-10-06 18:47:58
Дата пометки : UTC 2018-10-06 18:48:00
Аудио #2
Идентификатор : 3
Формат : AAC
Формат/Информация : Advanced Audio Codec
Профиль формата : LC
Идентификатор кодека : 40
Продолжительность : 24 м.
Вид битрейта : Переменный
Битрейт : 192 Кбит/сек
Максимальный битрейт : 229 Кбит/сек
Каналы : 2 канала
Расположение каналов : Front: L R
Частота : 48,0 КГц
Метод сжатия : С потерями
Размер потока : 33,5 Мбайт (7%)
Язык : Japanese
Дата кодирования : UTC 2018-10-06 18:47:59
Дата пометки : UTC 2018-10-06 18:48:00

Список серий

01. The Young Sorcerer -Seth
02. True Courage -Bravery
03. Day of Departure -Alma
04. A Meeting in the Sky -Encounter
05. A Paradise of Wisdom and Hope -Artemis

Скриншоты

Показать сообщения:    
Ответить на тему

Текущее время: 17-Ноя 05:17

Часовой пояс: UTC ± 0



Вы не можете начинать темы
Вы не можете отвечать на сообщения
Вы не можете редактировать свои сообщения
Вы не можете удалять свои сообщения
Вы не можете голосовать в опросах
Вы не можете прикреплять файлы к сообщениям
Вы не можете скачивать файлы