X

Привет, дорогой друг!

У тебя установлено расширение AdBlock или подобное. Добавь наш сайт в белый список, и тем самым внесешь свой вклад в его развитие. Инструкция как отключить AdBlock
Регистрация ·
Имя: Пароль:  
· Забыли пароль?
 FREELEECH СКАЧАННОЕ НЕ УЧИТЫВАЕТСЯ! 


Ты / You / Сезон: 1 / Серии: 1-8 из 10 (Маркос Сига, Ли Толанд Кригер, Марта Митчел, Эрин Фили, Келли Сайрус) [2018, драма, триллер, WEB-DLRip] (MVO : NewStudio)

Ответить на тему
 
Автор

Сообщение

Rtuty ®

Пол: Мужской

Стаж: 4 месяца 18 дней

Сообщений: 538

Репутация: 556

[+] [-]

Награды: 4 (Подробнее)

Boss (Количество: 1) Meloman (Количество: 1) Prestige (Количество: 1)

Вне форума

[Профиль] [ЛС]

Создавать темы 06-Ноя-2018 10:47

[Цитировать]

Ты / You- -Год выпуска: 2018
Страна: США
Жанр: драма, триллер
Продолжительность: ~00:48:00 серия
Перевод: Профессиональный (многоголосый закадровый)
Доп. инфо о переводе: NewStudio--Режиссёр: Маркос Сига , Ли Толанд Кригер , Марта Митчел , Эрин Фили , Келли Сайрус--В ролях: Джон Стамос , Майкл Мейзе , Пенн Бэджли , Кристин Той , Дэниэл Косгров , Шэй Митчел , <[email protected]#$%> Бенито , Манини Гупта , Виктория Картагена , Люк Дэвид Янг , Шехзад Попат , Хари Неф , Зак Черри , Элизабет Лэил--Описание: Продавец в книжном магазине влюбляется в симпатичную покупательницу. Чтобы завоевать её сердце, герой решает поразить девушку своими новомодными гаджетами и хакерскими способностями.--Качество видео: WEB-DLRip
Формат: AVI-Видео: Xvid 720x368 23.976fps 1307kbps
Аудио: MP3 48000Hz stereo 128kbps 2ch | Rus, Eng

MediaInfo

General
Complete name : D:\Сериалы\you_s01e01_newstudio_tv.avi
Format : AVI
Format/Info : Audio Video Interleave
File size : 550 MiB
Duration : 48 min 44 s
Overall bit rate : 1 578 kb/s
Writing application : VirtualDubMod 1.5.10.2 (build 2540/release)
Writing library : VirtualDubMod build 2540/release
Video
ID : 0
Format : MPEG-4 Visual
Format profile : Advanced [email protected]
Format settings : BVOP2 / QPel
Format settings, BVOP : 2
Format settings, QPel : Yes
Format settings, GMC : No warppoints
Format settings, Matrix : Default (MPEG)
Muxing mode : Packed bitstream
Codec ID : XVID
Codec ID/Hint : XviD
Duration : 48 min 44 s
Bit rate : 1 308 kb/s
Width : 720 pixels
Height : 368 pixels
Display aspect ratio : 1.957
Frame rate : 23.976 (24000/1001) FPS
Color space : YUV
Chroma subsampling : 4:2:0
Bit depth : 8 bits
Scan type : Progressive
Compression mode : Lossy
Bits/(Pixel*Frame) : 0.206
Stream size : 456 MiB (83%)
Writing library : XviD 67
Audio #1
ID : 1
Format : MPEG Audio
Format version : Version 1
Format profile : Layer 3
Format settings : Joint stereo / MS Stereo
Codec ID : 55
Codec ID/Hint : MP3
Duration : 48 min 44 s
Bit rate mode : Constant
Bit rate : 128 kb/s
Channel(s) : 2 channels
Sampling rate : 48.0 kHz
Compression mode : Lossy
Stream size : 44.6 MiB (8%)
Alignment : Aligned on interleaves
Interleave, duration : 42 ms (1.00 video frame)
Interleave, preload duration : 504 ms
Audio #2
ID : 2
Format : MPEG Audio
Format version : Version 1
Format profile : Layer 3
Format settings : Joint stereo
Codec ID : 55
Codec ID/Hint : MP3
Duration : 48 min 44 s
Bit rate mode : Constant
Bit rate : 128 kb/s
Channel(s) : 2 channels
Sampling rate : 48.0 kHz
Frame rate : 41.667 FPS (1152 SPF)
Compression mode : Lossy
Stream size : 44.6 MiB (8%)
Alignment : Aligned on interleaves
Interleave, duration : 42 ms (1.00 video frame)
Interleave, preload duration : 504 ms
Writing library : LAME3.99r
Encoding settings : -m j -V 4 -q 2 -lowpass 17 -b 128
-

Релиз подготовлен RG Serials

Показать сообщения:    
Ответить на тему

Текущее время: 13-Ноя 22:32

Часовой пояс: UTC ± 0



Вы не можете начинать темы
Вы не можете отвечать на сообщения
Вы не можете редактировать свои сообщения
Вы не можете удалять свои сообщения
Вы не можете голосовать в опросах
Вы не можете прикреплять файлы к сообщениям
Вы не можете скачивать файлы