X

Привет, дорогой друг!

У тебя установлено расширение AdBlock или подобное. Добавь наш сайт в белый список, и тем самым внесешь свой вклад в его развитие. Инструкция как отключить AdBlock
Регистрация ·
Имя: Пароль:  
· Забыли пароль?
 FREELEECH СКАЧАННОЕ НЕ УЧИТЫВАЕТСЯ! 


Восход чёрной земли / Black Earth Rising / Сезон: 1 / Серии: 1-8 из 8 (Хьюго Блик) [2018, Триллер, WEB-DLRip] (MVO : NewStudio)

Ответить на тему
 
Автор

Сообщение

Rtuty ®

Пол: Мужской

Стаж: 4 месяца 24 дня

Сообщений: 576

Репутация: 556

[+] [-]

Награды: 4 (Подробнее)

Boss (Количество: 1) Meloman (Количество: 1) Prestige (Количество: 1)

Вне форума

[Профиль] [ЛС]

Создавать темы 06-Ноя-2018 11:24

[Цитировать]

Восход чёрной земли / Black Earth Rising- -Год выпуска: 2018
Страна: США
Жанр: Триллер
Продолжительность: 1х 00:59:00
Перевод: Профессиональный (многоголосый закадровый)
Доп. инфо о переводе: NewStudio--Режиссёр: Хьюго Блик--В ролях: Джон Гудман , Харриет Уолтер , Тамара Тюни , Найджел Уитми , Ричард Диксон , Трева Этьен , Суле Рими , Няша Хатенди , Вивьенн Харви , Мэттью Стир , Нома Думезвени , Лорел Лефкоу , Дебора Рок , Михаэла Коэл , Хелена Холмс , Паапа Эссьеду , Лусиан Мсамати--Описание: Кейт Эшби была спасена будучи ребенком, во время геноцида в Руанде. Ее удочерила Ева Эшби, британский прокурор по международному уголовному праву. Кейт была воспитана в Британии, и теперь, примерно через двадцать лет, она работает юридическим следователем. Еве достается дело, в котором фигурирует лидер африканского ополчения того времени. После этого история навсегда переворачивает жизнь героев.---Качество видео: WEB-DLRip
Формат: AVI--Видео: Xvid 720x368 25fps 1378kbps
Аудио: MP3 48000Hz stereo 128kbps 2ch | Rus, Eng

MediaInfo

neral
Complete name : F:\Ртуть\Сериалы\black_earth_rising_s01e01_newstudio_tv.avi
Format : AVI
Format/Info : Audio Video Interleave
File size : 700 MiB
Duration : 59 min 22 s
Overall bit rate : 1 649 kb/s
Writing application : VirtualDubMod 1.5.10.2 (build 2540/release)
Writing library : VirtualDubMod build 2540/release
Video
ID : 0
Format : MPEG-4 Visual
Format profile : Advanced Simple@L5
Format settings : BVOP2 / QPel
Format settings, BVOP : 2
Format settings, QPel : Yes
Format settings, GMC : No warppoints
Format settings, Matrix : Default (MPEG)
Muxing mode : Packed bitstream
Codec ID : XVID
Codec ID/Hint : XviD
Duration : 59 min 22 s
Bit rate : 1 378 kb/s
Width : 720 pixels
Height : 368 pixels
Display aspect ratio : 1.957
Frame rate : 25.000 FPS
Color space : YUV
Chroma subsampling : 4:2:0
Bit depth : 8 bits
Scan type : Progressive
Compression mode : Lossy
Bits/(Pixel*Frame) : 0.208
Stream size : 585 MiB (84%)
Writing library : XviD 67
Audio #1
ID : 1
Format : MPEG Audio
Format version : Version 1
Format profile : Layer 3
Format settings : Joint stereo / MS Stereo
Codec ID : 55
Codec ID/Hint : MP3
Duration : 59 min 22 s
Bit rate mode : Constant
Bit rate : 128 kb/s
Channel(s) : 2 channels
Sampling rate : 48.0 kHz
Compression mode : Lossy
Stream size : 54.4 MiB (8%)
Alignment : Aligned on interleaves
Interleave, duration : 40 ms (1.00 video frame)
Interleave, preload duration : 504 ms
Audio #2
ID : 2
Format : MPEG Audio
Format version : Version 1
Format profile : Layer 3
Format settings : Joint stereo / MS Stereo
Codec ID : 55
Codec ID/Hint : MP3
Duration : 59 min 22 s
Bit rate mode : Constant
Bit rate : 128 kb/s
Channel(s) : 2 channels
Sampling rate : 48.0 kHz
Frame rate : 41.667 FPS (1152 SPF)
Compression mode : Lossy
Stream size : 54.4 MiB (8%)
Alignment : Aligned on interleaves
Interleave, duration : 40 ms (1.00 video frame)
Interleave, preload duration : 504 ms
Writing library : LAME3.99r
Encoding settings : -m j -V 4 -q 2 -lowpass 17 -b 128
-

Релиз подготовлен RG Serials

Показать сообщения:    
Ответить на тему

Текущее время: 20-Ноя 00:30

Часовой пояс: UTC ± 0



Вы не можете начинать темы
Вы не можете отвечать на сообщения
Вы не можете редактировать свои сообщения
Вы не можете удалять свои сообщения
Вы не можете голосовать в опросах
Вы не можете прикреплять файлы к сообщениям
Вы не можете скачивать файлы