X

Привет, дорогой друг!

У тебя установлено расширение AdBlock или подобное. Добавь наш сайт в белый список, и тем самым внесешь свой вклад в его развитие. Инструкция как отключить AdBlock
Регистрация ·
Имя: Пароль:  
· Забыли пароль?
 FREELEECH СКАЧАННОЕ НЕ УЧИТЫВАЕТСЯ! 


Мальчишник в Европе / Budapest (Ксавье Жанс) [2018, Комедия, WEB-DLRip-AVC] от ExKinoRay | iTunes

Ответить на тему
 
Автор

Сообщение

Rtuty ®

Пол: Мужской

Стаж: 4 месяца 21 день

Сообщений: 555

Репутация: 556

[+] [-]

Награды: 4 (Подробнее)

Boss (Количество: 1) Meloman (Количество: 1) Prestige (Количество: 1)

Вне форума

[Профиль] [ЛС]

Создавать темы 07-Ноя-2018 04:57

[Цитировать]

Информация о фильме
Название: Мальчишник в Европе
Оригинальное название: Budapest
Год выпуска: 2018
Жанр: Комедия
Режиссер: Ксавье Жанс
В ролях: Аликс Пуасон, Алис Белаиди, Маню Пайе, Джонатан Коэн, Од Легастелуа, Месье Пуп, Виктор Артус Соларо, Манон Аллендер
О фильме :
Арно и Винсент – лучшие друзья еще с тех времен, когда они учились в местной престижной школе для ведения бизнеса. После ее окончания оба устроились на солидную работу, где им ужасно скучно. Винсент – ценный сотрудник в корпорации, но добиться уважения руководства и продвижения по карьерной лестнице он так и не смог. Арно и вовсе приходиться работать в компании, которая принадлежит отцу своей жены Одри. На свадьбе общего друга мужчины знакомятся с одной из стриптизерш, которая приехала из Будапешта и рассказала мужчинам все о своем родном городе. Вот тогда у Винсента и появилась мысль открыть собственную компанию и заняться организацией мальчишников в столице Румынии...

Страна: Франция, Бельгия
Студия: Labyrinthe Films, Frères Zak Productions, Maje Productions
Продолжительность: 01:42:19
Перевод: Дублированный | iTunes
Файл
Формат: MKV
Качество: WEB-DLRip-AVC
Видео: MPEG-4 AVC, 768x344, - 942 Кбит/с
Аудио: AAC-HE, 2 ch, - 76 Кбит/с
Субтитры: Нет

MI

Общее
Уникальный идентификатор : 172138462309851690556578457635376945074 (0x8180A97337B7637AB2D797FEE5B157B2)
Полное имя : D:MOVIESBudapest.2018.ExKinoRay.mkv
Формат : Matroska
Версия формата : Version 4 / Version 2
Размер файла : 746 Мбайт
Продолжительность : 1 ч. 42 м.
Общий поток : 1020 Кбит/сек
Дата кодирования : UTC 2018-11-07 04:23:51
Программа кодирования : mkvmerge v15.0.0 ('Duel with the Devil') 64-bit
Библиотека кодирования : libebml v1.3.5 + libmatroska v1.4.5
Видео
Идентификатор : 1
Формат : AVC
Формат/Информация : Advanced Video Codec
Профиль формата : High@L4.1
Параметр CABAC формата : Да
Параметр RefFrames формата : 12 кадров
Идентификатор кодека : V_MPEG4/ISO/AVC
Продолжительность : 1 ч. 42 м.
Битрейт : 942 Кбит/сек
Ширина : 768 пикселей
Высота : 344 пикселя
Соотношение сторон : 2,25:1
Режим частоты кадров : Постоянный
Частота кадров : 24,000 кадра/сек
Цветовое пространство : YUV
Субдискретизация насыщенности : 4:2:0
Битовая глубина : 8 бит
Тип развёртки : Прогрессивная
Бит/(Пиксели*Кадры) : 0.149
Размер потока : 689 Мбайт (92%)
Библиотека кодирования : x264 core 152 r2851kMod ba24899
Настройки программы : cabac=1 / ref=12 / deblock=1:-3:-3 / analyse=0x3:0x133 / me=umh / subme=10 / psy=1 / fade_compensate=0.00 / psy_rd=1.00:0.15 / mixed_ref=1 / me_range=32 / chroma_me=1 / trellis=2 / 8x8dct=1 / cqm=0 / deadzone=21,11 / fast_pskip=0 / chroma_qp_offset=-3 / threads=6 / lookahead_threads=1 / sliced_threads=0 / nr=0 / decimate=0 / interlaced=0 / bluray_compat=0 / constrained_intra=0 / bframes=11 / b_pyramid=2 / b_adapt=2 / b_bias=0 / direct=3 / weightb=1 / open_gop=0 / weightp=2 / keyint=240 / keyint_min=23 / scenecut=40 / intra_refresh=0 / rc_lookahead=40 / rc=2pass / mbtree=1 / bitrate=942 / ratetol=1.0 / qcomp=0.60 / qpmin=0 / qpmax=69 / qpstep=4 / cplxblur=20.0 / qblur=0.5 / ip_ratio=1.40 / aq=3:1.00
Default : Да
Forced : Нет
Аудио
Идентификатор : 2
Формат : AAC
Формат/Информация : Advanced Audio Codec
Профиль формата : HE-AAC / LC
Идентификатор кодека : A_AAC
Продолжительность : 1 ч. 42 м.
Битрейт : 76,0 Кбит/сек
Каналы : 2 канала
Расположение каналов : Front: L R
Частота : 48,0 КГц / 24,0 КГц
Частота кадров : 23,438 кадра/сек (1024 SPF)
Метод сжатия : С потерями
Задержка видео : 31 мс.
Размер потока : 55,6 Мбайт (7%)
Язык : Russian
Default : Да
Forced : Нет
Меню
00:00:00.000 : en:Глава 1
00:07:37.625 : en:Глава 2
00:16:28.041 : en:Глава 3
00:23:56.666 : en:Глава 4
00:31:26.416 : en:Глава 5
00:38:45.207 : en:Глава 6
00:46:46.207 : en:Глава 7
00:54:19.290 : en:Глава 8
01:01:38.081 : en:Глава 9
01:09:57.205 : en:Глава 10
01:17:42.037 : en:Глава 11
01:25:04.619 : en:Глава 12
01:32:37.576 : en:Глава 13

Скриншоты


Показать сообщения:    
Ответить на тему

Текущее время: 16-Ноя 20:40

Часовой пояс: UTC ± 0



Вы не можете начинать темы
Вы не можете отвечать на сообщения
Вы не можете редактировать свои сообщения
Вы не можете удалять свои сообщения
Вы не можете голосовать в опросах
Вы не можете прикреплять файлы к сообщениям
Вы не можете скачивать файлы