X

Привет, дорогой друг!

У тебя установлено расширение AdBlock или подобное. Добавь наш сайт в белый список, и тем самым внесешь свой вклад в его развитие. Инструкция как отключить AdBlock
Регистрация ·
Имя: Пароль:  
· Забыли пароль?
 FREELEECH СКАЧАННОЕ НЕ УЧИТЫВАЕТСЯ! 


О моём перерождении в слизь / Tensei Shitara Slime Datta Ken [01-06 из 24] (Ясухито Кикути) [2018, Приключения, фэнтези, HDTVRip 720p] от AniMedia | L2

Ответить на тему
 
Автор

Сообщение

Rtuty ®

Пол: Мужской

Стаж: 4 месяца 20 дней

Сообщений: 554

Репутация: 556

[+] [-]

Награды: 4 (Подробнее)

Boss (Количество: 1) Meloman (Количество: 1) Prestige (Количество: 1)

Вне форума

[Профиль] [ЛС]

Создавать темы 07-Ноя-2018 05:27

[Цитировать]

Информация о фильме
Название: О моём перерождении в слизь
Оригинальное название: Tensei Shitara Slime Datta Ken
Страна: Япония
Год выхода: 2018
Жанр: Приключения, фэнтези
Режиссер: Ясухито Кикути
Автор оригинала: Каваками Тайки / 川上泰樹
О фильме: Жизнь тридцатисемилетнего Сатору Миками скучна и однообразна... Была. До того момента, как он, защищая коллегу, стал жертвой сумасшедшего и умер. Только вот на этом его история не заканчивается! Проснувшись волшебном мире… он превращается в слизь! Правда, в ином мире даже слизь — штука совсем непростая, и Сатору не стал исключением. Впереди его, ныне Римуру Темпеста, ждут великие свершения, а помогать ему будут товарищи и слуги, многих из которых он спасет от неминуемой смерти.
Студия:
Продолжительность: ~ 00:24:00
Перевод: Любительский двухголосый
Озвучили: LolAlice & KingMaster
Тайминг и сведение звука: KingMaster
Сборка контейнера: Eugeo
Файл
Формат: mp4
Качество: HDTVRip 720p
Видео: H.264; 1280x720; ~ 3000 Kbps, 23.976fps; (8 bit)
Аудио 1: AAC 48000 Hz, 2.0, 192 kbps Язык Русский
Аудио 2: AAC 48000 Hz, 2.0, 192 kbps Язык Японский
Субтитры: (внешние ASS) Язык субтитров русский ; Перевод: Crunchyrol

Инфо-файл

Общее
Полное имя : F:KinozalTensei_shitara_Slime_Datta_Ken_[AniMedia.TV]Tensei_shitara_Slime_Datta_Ken_[01]_[LolAlice & KingMaster]_.ass
Размер файла : 56,7 Кбайт
Общее
Полное имя : F:KinozalTensei_shitara_Slime_Datta_Ken_[AniMedia.TV]Tensei_shitara_Slime_Datta_Ken_[01]_[LolAlice & KingMaster]_.mp4
Формат : MPEG-4
Профиль формата : Base Media
Идентификатор кодека : isom
Размер файла : 690 Мбайт
Продолжительность : 24 м.
Режим общего битрейта : Переменный
Общий поток : 4019 Кбит/сек
Дата кодирования : UTC 2018-09-30 23:09:47
Дата пометки : UTC 2018-09-30 23:09:47
Программа кодирования : Yamb 2.1.0.0 [http://yamb.unite-video.com]
Видео
Идентификатор : 1
Формат : AVC
Формат/Информация : Advanced Video Codec
Профиль формата : Main@L4.1
Параметр CABAC формата : Да
Параметр ReFrames формата : 4 кадра
Идентификатор кодека : avc1
Идентификатор кодека/Информация : Advanced Video Coding
Продолжительность : 24 м.
Продолжительность оригинала : 24 м.Общее
Полное имя : F:KinozalTensei_shitara_Slime_Datta_Ken_[AniMedia.TV]Tensei_shitara_Slime_Datta_Ken_[01]_[LolAlice & KingMaster]_.ass
Размер файла : 71,9 Кбайт
Общее
Полное имя : F:KinozalTensei_shitara_Slime_Datta_Ken_[AniMedia.TV]Tensei_shitara_Slime_Datta_Ken_[01]_[LolAlice & KingMaster]_.mp4
Формат : MPEG-4
Профиль формата : Base Media
Идентификатор кодека : isom
Размер файла : 690 Мбайт
Продолжительность : 24 м.
Режим общего битрейта : Переменный
Общий поток : 4019 Кбит/сек
Дата кодирования : UTC 2018-09-30 23:09:47
Дата пометки : UTC 2018-09-30 23:09:47
Программа кодирования : Yamb 2.1.0.0 [http://yamb.unite-video.com]
Видео
Идентификатор : 1
Формат : AVC
Формат/Информация : Advanced Video Codec
Профиль формата : Main@L4.1
Параметр CABAC формата : Да
Параметр ReFrames формата : 4 кадра
Идентификатор кодека : avc1
Идентификатор кодека/Информация : Advanced Video Coding
Продолжительность : 24 м.
Продолжительность оригинала : 24 м.
Битрейт : 3619 Кбит/сек
Максимальный битрейт : 22,4 Мбит/сек
Ширина : 1280 пикселей
Высота : 720 пикселей
Соотношение сторон : 16:9
Режим частоты кадров : Переменный
Частота кадров : 23,976 кадра/сек
Минимальная частота кадров : 10,101 кадров/сек
Максимальная частота кадров : 24,390 кадра/сек
Цветовое пространство : YUV
Субдискретизация насыщенности : 4:2:0
Битовая глубина : 8 бит
Тип развёртки : Прогрессивная
Бит/(Пиксели*Кадры) : 0.164
Размер потока : 621 Мбайт (90%)
Размер потока оригинала : 621 Мбайт (90%)
Библиотека кодирования : x264 core 157 r2935 545de2f
Настройки программы : cabac=1 / ref=3 / deblock=1:0:0 / analyse=0x1:0x111 / me=hex / subme=7 / psy=1 / psy_rd=1.00:0.00 / mixed_ref=1 / me_range=16 / chroma_me=1 / trellis=1 / 8x8dct=0 / cqm=0 / deadzone=21,11 / fast_pskip=1 / chroma_qp_offset=-2 / threads=18 / lookahead_threads=3 / sliced_threads=0 / nr=0 / decimate=1 / interlaced=0 / bluray_compat=0 / constrained_intra=0 / bframes=3 / b_pyramid=2 / b_adapt=1 / b_bias=0 / direct=1 / weightb=1 / open_gop=0 / weightp=2 / keyint=240 / keyint_min=1 / scenecut=40 / intra_refresh=0 / rc_lookahead=40 / rc=crf / mbtree=1 / crf=20.0 / qcomp=0.60 / qpmin=0 / qpmax=69 / qpstep=4 / ip_ratio=1.40 / aq=1:1.50
Дата кодирования : UTC 2018-10-01 15:35:31
Дата пометки : UTC 2018-09-30 23:10:07
Цветовой диапазон : Limited
Основные цвета : BT.709
Характеристики трансфера : BT.709
Коэффициенты матрицы : BT.709
Аудио #1
Идентификатор : 2
Формат : AAC
Формат/Информация : Advanced Audio Codec
Профиль формата : LC
Идентификатор кодека : 40
Продолжительность : 24 м.
Вид битрейта : Переменный
Битрейт : 192 Кбит/сек
Максимальный битрейт : 200 Кбит/сек
Каналы : 2 канала
Расположение каналов : Front: L R
Частота : 48,0 КГц
Метод сжатия : С потерями
Размер потока : 33,0 Мбайт (5%)
Заголовок : LolAlice & KingMaster
Язык : Russian
Дата кодирования : UTC 2018-09-30 23:09:58
Дата пометки : UTC 2018-09-30 23:10:07
Аудио #2
Идентификатор : 3
Формат : AAC
Формат/Информация : Advanced Audio Codec
Профиль формата : LC
Идентификатор кодека : 40
Продолжительность : 24 м.
Вид битрейта : Переменный
Битрейт : 200 Кбит/сек
Максимальный битрейт : 274 Кбит/сек
Каналы : 2 канала
Расположение каналов : Front: L R
Частота : 48,0 КГц
Метод сжатия : С потерями
Размер потока : 34,4 Мбайт (5%)
Дата кодирования : UTC 2018-09-30 23:09:59
Дата пометки : UTC 2018-09-30 23:10:07

Список серий

01. The Storm Dragon, Verudora
02. Meeting the Goblins
03. Battle at the Goblin Village
04. In the Kingdom of the Dwarves
05. Hero King, Gazel Dwargo
06. Shizu

Скриншоты

Показать сообщения:    
Ответить на тему

Текущее время: 16-Ноя 05:45

Часовой пояс: UTC ± 0



Вы не можете начинать темы
Вы не можете отвечать на сообщения
Вы не можете редактировать свои сообщения
Вы не можете удалять свои сообщения
Вы не можете голосовать в опросах
Вы не можете прикреплять файлы к сообщениям
Вы не можете скачивать файлы