X

Привет, дорогой друг!

У тебя установлено расширение AdBlock или подобное. Добавь наш сайт в белый список, и тем самым внесешь свой вклад в его развитие. Инструкция как отключить AdBlock
Регистрация ·
Имя: Пароль:  
· Забыли пароль?
 FREELEECH СКАЧАННОЕ НЕ УЧИТЫВАЕТСЯ! 


Последний Корабль / The Last Ship / Сезон: 5 / Серии: 1-10 из 10 (Пол Холахан, Джек Бендер, Питер Уэллер) [2018, фантастика, боевик, триллер, драма, военный, WEB-DLRip] (MVO : LostFilm)

Ответить на тему
 
Автор

Сообщение

Rtuty ®

Пол: Мужской

Стаж: 4 месяца 25 дней

Сообщений: 604

Репутация: 556

[+] [-]

Награды: 4 (Подробнее)

Boss (Количество: 1) Meloman (Количество: 1) Prestige (Количество: 1)

Вне форума

[Профиль] [ЛС]

Создавать темы 07-Ноя-2018 08:06

[Цитировать]

Последний Корабль / The Last Ship- -Год выпуска: 2018
Страна: США
Жанр: фантастика, боевик, триллер, драма, военный
Продолжительность: 1х 00:43:00
Перевод: Профессиональный (многоголосый закадровый)
Доп. инфо о переводе: LostFilm--Режиссёр: Пол Холахан , Джек Бендер , Питер Уэллер--В ролях: Рона Митра , Эрик Дэйн , Адам Болдуин , Чарльз Парнелл , Трэвис Ван Винкл , Марисса Нейтлинг , Кристина Элмор , Кевин Майкл Мартин , Джоко Симс , Бриджет Риган--Описание: Когда глобальная пандемия уничтожает восемьдесят процентов населения планеты, на плечи экипажа одинокого эсминца ложится задача по спасению человечества от вымирания.--Качество видео: WEB-DLRip
Формат: AVI-Видео: Xvid 720x400 23.976fps 1915kbps
Аудио: MP3 48000Hz stereo 186kbps

MediaInfo

General
Complete name : F:\Ртуть\Сериалы\The.Last.Ship.S05E01.rus.LostFilm.TV.avi
Format : AVI
Format/Info : Audio Video Interleave
File size : 638 MiB
Duration : 42 min 11 s
Overall bit rate mode : Variable
Overall bit rate : 2 115 kb/s
Writing application : Nandub v1.0rc2
Writing library : Nandub build 1853/release
Video
ID : 0
Format : MPEG-4 Visual
Format profile : Advanced Simple@L5
Format settings, BVOP : No
Format settings, QPel : No
Format settings, GMC : No warppoints
Format settings, Matrix : Default (MPEG)
Codec ID : XVID
Codec ID/Hint : XviD
Duration : 42 min 11 s
Bit rate : 1 915 kb/s
Width : 720 pixels
Height : 400 pixels
Display aspect ratio : 16:9
Frame rate : 23.976 (24000/1001) FPS
Original frame rate : 23.976 (23976/1000) FPS
Color space : YUV
Chroma subsampling : 4:2:0
Bit depth : 8 bits
Scan type : Progressive
Compression mode : Lossy
Bits/(Pixel*Frame) : 0.277
Stream size : 578 MiB (91%)
Writing library : XviD 1.2.1 (UTC 2008-12-04)
Audio
ID : 1
Format : MPEG Audio
Format version : Version 1
Format profile : Layer 3
Format settings : Joint stereo
Codec ID : 55
Codec ID/Hint : MP3
Duration : 42 min 10 s
Bit rate mode : Variable
Bit rate : 192 kb/s
Channel(s) : 2 channels
Sampling rate : 48.0 kHz
Frame rate : 41.667 FPS (1152 SPF)
Compression mode : Lossy
Stream size : 56.3 MiB (9%)
Alignment : Aligned on interleaves
Interleave, duration : 24 ms (0.58 video frame)
Interleave, preload duration : 486 ms
Writing library : LAME3.97b
Encoding settings : -m j -V 4 -q 3 -lowpass 18.6 --abr 192
-

Релиз подготовлен RG Serials

Показать сообщения:    
Ответить на тему

Текущее время: 21-Ноя 06:11

Часовой пояс: UTC ± 0



Вы не можете начинать темы
Вы не можете отвечать на сообщения
Вы не можете редактировать свои сообщения
Вы не можете удалять свои сообщения
Вы не можете голосовать в опросах
Вы не можете прикреплять файлы к сообщениям
Вы не можете скачивать файлы