X

Привет, дорогой друг!

У тебя установлено расширение AdBlock или подобное. Добавь наш сайт в белый список, и тем самым внесешь свой вклад в его развитие. Инструкция как отключить AdBlock
Регистрация ·
Имя: Пароль:  
· Забыли пароль?
 FREELEECH СКАЧАННОЕ НЕ УЧИТЫВАЕТСЯ! 


Титаник / Titanic (Джеймс Кэмерон) [1997, драма, мелодрама, BDRip-HEVC 1080p] от sm0tJay | D | Open Matte

Ответить на тему
 
Автор

Сообщение

Rtuty ®

Пол: Мужской

Стаж: 4 месяца 24 дня

Сообщений: 570

Репутация: 556

[+] [-]

Награды: 4 (Подробнее)

Boss (Количество: 1) Meloman (Количество: 1) Prestige (Количество: 1)

Вне форума

[Профиль] [ЛС]

Создавать темы 07-Ноя-2018 11:48

[Цитировать]

Год выпуска: 1997
Страна: США
Жанр: драма, мелодрама
Продолжительность: 03:14:54
Перевод: Дубляж
Субтитры: Русские (forced)
Режиссер: Джеймс Кэмерон
В ролях: Леонардо ДиКаприо, Билл Пэкстон, Бернард Хилл, Фрэнсис Фишер, Кейт Уинслет, Билли Зейн, Кэти Бэйтс, Джонатан Хайд, Дэвид Уорнер, Йоан Граффадд, Виктор Гарбер, Сьюзи Эймис, Марк Линдсэй Чэпмэн, Дэнни Нуччи, Глория Стюарт, Брендан Коннолли, Джеймс Кэмерон
О фильме: :
Титаник... Она ступила на его грандиозную палубу, зная, что лайнер везет ее в будущую тюрьму, имя которой - брак по расчету... Он в последний момент чудом оказался на уровне кают третьего класса, но свято верил, что этот пароход доставит его в будущее, которое в его собственных руках! Кто же мог тогда предположить, что будущее самого лайнера уже предопределено? Но в мире все-же есть непотопляемые вещи... И может быть одна из них - это простая человеческая память?..


Качество: BDRip-HEVC 1080p
Формат: MKV
Видео: 1920x1080, 23.976 fps, HEVC, ~4500 kbps, 10bit
Аудио №1: AC3 / 5.1 / 48 kHz / 640 kbps / 16 bit | Дубляж - Blu-Ray CEE

Скриншоты

MediaInfo

General
Unique ID : 36572716103738356510036720883691005979 (0x1B83A61EE96A45FBFF65A7D285F5A81B)
Complete name : C:UserscryvgenDesktopРаздачиTitanic (1997) (1080p BluRay x265 10bit).mkv
Format : Matroska
Format version : Version 4 / Version 2
File size : 7.00 GiB
Duration : 3 h 14 min
Overall bit rate : 5 142 kb/s
Movie name : Rip by: sm0tJay
Encoded date : UTC 2018-11-06 17:10:59
Writing application : mkvmerge v28.1.0 ('Morning Child') 64-bit
Writing library : libebml v1.3.6 + libmatroska v1.4.9
Writing frontend : StaxRip v1.7.0.6
Video
ID : 1
Format : HEVC
Format/Info : High Efficiency Video Coding
Format profile : Main 10@L4@Main
Codec ID : V_MPEGH/ISO/HEVC
Duration : 3 h 14 min
Bit rate : 4 500 kb/s
Width : 1 920 pixels
Height : 1 080 pixels
Display aspect ratio : 16:9
Frame rate mode : Constant
Frame rate : 23.976 (24000/1001) FPS
Color space : YUV
Chroma subsampling : 4:2:0
Bit depth : 10 bits
Bits/(Pixel*Frame) : 0.091
Stream size : 6.13 GiB (88%)
Title : Encoded by: Silence
Writing library : x265 2.9+4-471726d3a046:[Windows][MSVC 1900][64 bit] 10bit
Encoding settings : cpuid=1111039 / frame-threads=4 / numa-pools=16 / wpp / no-pmode / no-pme / no-psnr / no-ssim / log-level=2 / input-csp=1 / input-res=1920x1080 / interlace=0 / total-frames=280392 / level-idc=0 / high-tier=1 / uhd-bd=0 / ref=5 / no-allow-non-conformance / no-repeat-headers / annexb / no-aud / no-hrd / info / hash=0 / no-temporal-layers / open-gop / min-keyint=23 / keyint=250 / gop-lookahead=0 / bframes=8 / b-adapt=2 / b-pyramid / bframe-bias=0 / rc-lookahead=60 / lookahead-slices=4 / scenecut=40 / radl=0 / no-intra-refresh / ctu=64 / min-cu-size=8 / rect / no-amp / max-tu-size=32 / tu-inter-depth=1 / tu-intra-depth=1 / limit-tu=0 / rdoq-level=2 / dynamic-rd=0.00 / no-ssim-rd / signhide / no-tskip / nr-intra=0 / nr-inter=0 / no-constrained-intra / strong-intra-smoothing / max-merge=3 / limit-refs=3 / limit-modes / me=3 / subme=5 / merange=57 / temporal-mvp / weightp / no-weightb / no-analyze-src-pics / deblock=-3:-3 / no-sao / no-sao-non-deblock / rd=4 / no-early-skip / rskip / no-fast-intra / no-tskip-fast / no-cu-lossless / no-b-intra / no-splitrd-skip / rdpenalty=0 / psy-rd=2.00 / psy-rdoq=1.00 / no-rd-refine / no-lossless / cbqpoffs=0 / crqpoffs=0 / rc=abr / bitrate=4500 / qcomp=0.60 / qpstep=4 / stats-write=0 / stats-read=2 / cplxblur=20.0 / qblur=0.5 / ipratio=1.40 / pbratio=1.30 / aq-mode=3 / aq-strength=1.00 / cutree / zone-count=0 / no-strict-cbr / qg-size=32 / no-rc-grain / qpmax=69 / qpmin=0 / no-const-vbv / sar=0 / overscan=0 / videoformat=5 / range=0 / colorprim=2 / transfer=2 / colormatrix=2 / chromaloc=0 / display-window=0 / max-cll=0,0 / min-luma=0 / max-luma=1023 / log2-max-poc-lsb=8 / vui-timing-info / vui-hrd-info / slices=1 / no-opt-qp-pps / no-opt-ref-list-length-pps / no-multi-pass-opt-rps / scenecut-bias=0.05 / no-opt-cu-delta-qp / no-aq-motion / no-hdr / no-hdr-opt / no-dhdr10-opt / no-idr-recovery-sei / analysis-reuse-level=5 / scale-factor=0 / refine-intra=0 / refine-inter=0 / refine-mv=0 / no-limit-sao / ctu-info=0 / no-lowpass-dct / refine-mv-type=0 / copy-pic=1 / max-ausize-factor=1.0 / no-dynamic-refine / no-single-sei
Language : English
Default : Yes
Forced : No
Audio
ID : 2
Format : AC-3
Format/Info : Audio Coding 3
Format settings, Endianness : Big
Codec ID : A_AC3
Duration : 3 h 14 min
Bit rate mode : Constant
Bit rate : 640 kb/s
Channel(s) : 6 channels
Channel positions : Front: L C R, Side: L R, LFE
Sampling rate : 48.0 kHz
Frame rate : 31.250 FPS (1536 spf)
Bit depth : 16 bits
Compression mode : Lossy
Stream size : 892 MiB (12%)
Title : Дубляж (Blu-Ray CEE) (Russian - AC-3 5.1)
Language : Russian
Service kind : Complete Main
Default : Yes
Forced : No
Text
ID : 3
Format : UTF-8
Codec ID : S_TEXT/UTF8
Codec ID/Info : UTF-8 Plain Text
Duration : 3 h 13 min
Bit rate : 0 b/s
Count of elements : 7
Stream size : 243 Bytes (0%)
Title : Русские forced, Blu-ray CEE
Language : Russian
Default : Yes
Forced : No
Menu
00:00:00.000 : en:Chapter 1
00:01:24.375 : en:Chapter 2
00:04:39.988 : en:Chapter 3
00:08:26.130 : en:Chapter 4
00:10:46.771 : en:Chapter 5
00:12:52.646 : en:Chapter 6
00:16:52.428 : en:Chapter 7
00:20:07.748 : en:Chapter 8
00:23:38.875 : en:Chapter 9
00:26:26.543 : en:Chapter 10
00:29:03.366 : en:Chapter 11
00:29:37.525 : en:Chapter 12
00:34:59.931 : en:Chapter 13
00:36:48.622 : en:Chapter 14
00:42:59.159 : en:Chapter 15
00:45:26.098 : en:Chapter 16
00:47:11.620 : en:Chapter 17
00:53:33.043 : en:Chapter 18
00:56:47.987 : en:Chapter 19
01:05:32.052 : en:Chapter 20
01:10:19.965 : en:Chapter 21
01:14:06.358 : en:Chapter 22
01:16:10.690 : en:Chapter 23
01:19:59.044 : en:Chapter 24
01:22:50.506 : en:Chapter 25
01:23:40.056 : en:Chapter 26
01:28:21.629 : en:Chapter 27
01:29:19.854 : en:Chapter 28
01:32:52.274 : en:Chapter 29
01:36:59.104 : en:Chapter 30
01:44:41.149 : en:Chapter 31
01:46:21.041 : en:Chapter 32
01:47:58.850 : en:Chapter 1
01:50:11.107 : en:Chapter 2
01:52:21.403 : en:Chapter 3
01:53:54.330 : en:Chapter 4
01:55:21.834 : en:Chapter 5
01:56:10.883 : en:Chapter 6
01:57:53.235 : en:Chapter 7
02:06:38.343 : en:Chapter 8
02:08:49.974 : en:Chapter 9
02:11:22.085 : en:Chapter 10
02:15:42.553 : en:Chapter 11
02:19:43.460 : en:Chapter 12
02:21:24.561 : en:Chapter 13
02:25:28.764 : en:Chapter 14
02:27:28.425 : en:Chapter 15
02:29:07.274 : en:Chapter 16
02:29:56.698 : en:Chapter 17
02:33:31.538 : en:Chapter 18
02:36:52.363 : en:Chapter 19
02:38:33.881 : en:Chapter 20
02:40:34.669 : en:Chapter 21
02:45:00.643 : en:Chapter 22
02:47:48.811 : en:Chapter 23
02:49:22.529 : en:Chapter 24
02:52:09.613 : en:Chapter 25
02:53:41.330 : en:Chapter 26
02:57:53.498 : en:Chapter 27
02:59:35.308 : en:Chapter 28
03:01:29.255 : en:Chapter 29
03:03:13.651 : en:Chapter 30
03:04:57.880 : en:Chapter 31
03:07:19.647 : en:Chapter 32

Релиз

Закодировал Видео - Silence
Собрал Рип - sm0tJay
Показать сообщения:    
Ответить на тему

Текущее время: 19-Ноя 15:47

Часовой пояс: UTC ± 0



Вы не можете начинать темы
Вы не можете отвечать на сообщения
Вы не можете редактировать свои сообщения
Вы не можете удалять свои сообщения
Вы не можете голосовать в опросах
Вы не можете прикреплять файлы к сообщениям
Вы не можете скачивать файлы