X

Привет, дорогой друг!

У тебя установлено расширение AdBlock или подобное. Добавь наш сайт в белый список, и тем самым внесешь свой вклад в его развитие. Инструкция как отключить AdBlock
Регистрация ·
Имя: Пароль:  
· Забыли пароль?
 FREELEECH СКАЧАННОЕ НЕ УЧИТЫВАЕТСЯ! 


Однажды в Чукурова / Bir Zamanlar Çukurova / Сезон: 1 / Серии: 1-8 из 8 (Фарук Тебер) [2018, Драма, WEB-DL 720p] (AVO : Анастасия Гайдаржи) [Обновляемая]

Ответить на тему
 
Автор

Сообщение

Rtuty ®

Пол: Мужской

Стаж: 4 месяца 25 дней

Сообщений: 604

Репутация: 556

[+] [-]

Награды: 4 (Подробнее)

Boss (Количество: 1) Meloman (Количество: 1) Prestige (Количество: 1)

Вне форума

[Профиль] [ЛС]

Создавать темы 08-Ноя-2018 04:21

[Цитировать]

Однажды в Чукурова / Bir Zamanlar Çukurova- -Год выпуска: 2018
Страна: Турция
Жанр: Драма
Продолжительность: 1х 02:34:00
Перевод: Авторский одноголосый закадровый
Доп. инфо о переводе: Анастасия Гайдаржи--Режиссёр: Фарук Тебер--В ролях: Мурат Уналмыш , Хилаль Алтынбилек , Угур Гюнеш , Вахиде Перчин , Сибель Ташчыоглу , Бюлент Полат , Тургай Айдын--Описание: Действия в сериале проходят с 70 — годов прошлого века по сей день. Зюлейха выходит замуж за Демира, чтобы ее любимый мог жить, ведь он убил человека ради любви, и теперь им пришлось пуститься в бега. Однако в сериале ведется речь не только о двух разлученных влюбленных, но и о битве Хюнкар, которая расправила крылья, чтобы защитить своего единственного сына Демира. А Демир готов на все, чтобы удержать рядом с собой любимую женщину – Зюлейху. На бескрайних просторах Чукурова влюбленным придется пройти через суровые испытания...--Качество видео: WEB-DL 720p
Формат: MP4-Видео: MPEG4 Video (H264) 1280x720 25fps 562kbps
Аудио: AAC 44100Hz mono 192kbps 1ch

MediaInfo

General
Complete name : F:\Ртуть\Сериалы\Однажды в Чукурова (Сезон 01)\chukurova_s01e01.mp4
Format : MPEG-4
Format profile : Base Media
Codec ID : isom (isom/avc1/iso6)
File size : 836 MiB
Duration : 2 h 34 min
Overall bit rate mode : Variable
Overall bit rate : 758 kb/s
Encoded date : UTC 2018-09-16 00:02:59
Tagged date : UTC 2018-09-16 00:02:59
Writing application : My MP4Box GUI 0.6.0.6 <http://my-mp4box-gui.zymichost.com>
Video
ID : 1
Format : AVC
Format/Info : Advanced Video Codec
Format profile : Main@L3.1
Format settings : CABAC / 3 Ref Frames
Format settings, CABAC : Yes
Format settings, ReFrames : 3 frames
Codec ID : avc1
Codec ID/Info : Advanced Video Coding
Duration : 2 h 34 min
Bit rate : 562 kb/s
Maximum bit rate : 4 639 kb/s
Width : 1 280 pixels
Height : 720 pixels
Display aspect ratio : 16:9
Frame rate mode : Constant
Frame rate : 25.000 FPS
Color space : YUV
Chroma subsampling : 4:2:0
Bit depth : 8 bits
Scan type : Progressive
Bits/(Pixel*Frame) : 0.024
Stream size : 620 MiB (74%)
Title : 1_track1.h264
Encoded date : UTC 2018-09-16 00:02:59
Tagged date : UTC 2018-09-16 00:04:40
Color range : Limited
Color primaries : BT.709
Transfer characteristics : BT.709
Matrix coefficients : BT.709
Codec configuration box : avcC
Audio
ID : 2
Format : AAC LC
Format/Info : Advanced Audio Codec Low Complexity
Codec ID : mp4a-40-2
Duration : 2 h 34 min
Bit rate mode : Variable
Bit rate : 192 kb/s
Maximum bit rate : 201 kb/s
Channel(s) : 1 channel
Channel layout : C
Sampling rate : 44.1 kHz
Frame rate : 43.066 FPS (1024 SPF)
Compression mode : Lossy
Stream size : 212 MiB (25%)
Title : 1ðð_track2.aac
Encoded date : UTC 2018-09-16 00:03:59
Tagged date : UTC 2018-09-16 00:04:40
-

Релиз подготовлен RG Serials

Показать сообщения:    
Ответить на тему

Текущее время: 21-Ноя 06:03

Часовой пояс: UTC ± 0



Вы не можете начинать темы
Вы не можете отвечать на сообщения
Вы не можете редактировать свои сообщения
Вы не можете удалять свои сообщения
Вы не можете голосовать в опросах
Вы не можете прикреплять файлы к сообщениям
Вы не можете скачивать файлы