FREELEECH СКАЧАННОЕ НЕ УЧИТЫВАЕТСЯ! 


Настоящий американец / All American / Сезон: 1 / Серии: 1-8 из 13 (Роб Харди, Дэвид МакУиртер) [2018, Драма, WEB-DLRip] (MVO : NewStudio)

Ответить на тему
 
Автор

Сообщение

Mercury ®

Пол: Мужской

Стаж: 6 месяцев 22 дня

Сообщений: 867

Репутация: 569

[+] [-]

Награды: 4 (Подробнее)

Boss (Количество: 1) Meloman (Количество: 1) Prestige (Количество: 1)

Вне форума

[Профиль] [ЛС]

Создавать темы 12-Ноя-2018 04:13

[Цитировать]

Настоящий американец / All American- -Год выпуска: 2018
Страна: США, CW
Жанр: Драма
Продолжительность: ~00:42:00
Перевод: Профессиональный (многоголосый закадровый)
Доп. инфо о переводе: NewStudio--Режиссёр: Роб Харди, Дэвид МакУиртер--В ролях: Тэй Диггз, Монит Мазур, Джордан Бэлфи, Карима Уэстбрук, Бриана Лэйн, Коди Кристиан, Даниэль Кэмпбелл, Патрик Кейдж, Грета Онейогоу, Саманта Логан, Сачие Алессио, Хантер Клоудус--Описание: Спортивная драма, основанная на реальной жизни профессионального игрока Спенсера Пейсингера.--Качество видео: WEB-DLRip
Формат: AVI-Видео: Xvid 720x368 23.976fps 1517kbps
Аудио: MP3 48000Hz stereo 128kbps 2ch | Rus, Eng

MediaInfo

General
Complete name : F:\Ртуть\Сериалы\All.American.s01e01.WEBDLRip.NewStudio.TV.avi
Format : AVI
Format/Info : Audio Video Interleave
File size : 550 MiB
Duration : 43 min 0 s
Overall bit rate : 1 788 kb/s
Writing application : VirtualDubMod 1.5.10.2 (build 2540/release)
Writing library : VirtualDubMod build 2540/release
Video
ID : 0
Format : MPEG-4 Visual
Format profile : Advanced Simple@L5
Format settings : BVOP2 / QPel
Format settings, BVOP : 2
Format settings, QPel : Yes
Format settings, GMC : No warppoints
Format settings, Matrix : Default (MPEG)
Muxing mode : Packed bitstream
Codec ID : XVID
Codec ID/Hint : XviD
Duration : 43 min 0 s
Bit rate : 1 518 kb/s
Width : 720 pixels
Height : 368 pixels
Display aspect ratio : 1.957
Frame rate : 23.976 (24000/1001) FPS
Color space : YUV
Chroma subsampling : 4:2:0
Bit depth : 8 bits
Scan type : Progressive
Compression mode : Lossy
Bits/(Pixel*Frame) : 0.239
Stream size : 467 MiB (85%)
Writing library : XviD 67
Audio #1
ID : 1
Format : MPEG Audio
Format version : Version 1
Format profile : Layer 3
Format settings : Joint stereo / MS Stereo
Codec ID : 55
Codec ID/Hint : MP3
Duration : 43 min 0 s
Bit rate mode : Constant
Bit rate : 128 kb/s
Channel(s) : 2 channels
Sampling rate : 48.0 kHz
Compression mode : Lossy
Stream size : 39.4 MiB (7%)
Alignment : Aligned on interleaves
Interleave, duration : 42 ms (1.00 video frame)
Interleave, preload duration : 504 ms
Audio #2
ID : 2
Format : MPEG Audio
Format version : Version 1
Format profile : Layer 3
Format settings : Joint stereo
Codec ID : 55
Codec ID/Hint : MP3
Duration : 43 min 0 s
Bit rate mode : Constant
Bit rate : 128 kb/s
Channel(s) : 2 channels
Sampling rate : 48.0 kHz
Frame rate : 41.667 FPS (1152 SPF)
Compression mode : Lossy
Stream size : 39.4 MiB (7%)
Alignment : Aligned on interleaves
Interleave, duration : 42 ms (1.00 video frame)
Interleave, preload duration : 504 ms
Writing library : LAME3.99r
Encoding settings : -m j -V 4 -q 2 -lowpass 17 -b 128
-

Релиз подготовлен RG Serials

Показать сообщения:    
Ответить на тему

Текущее время: 18-Янв 05:46

Часовой пояс: UTC ± 0



Вы не можете начинать темы
Вы не можете отвечать на сообщения
Вы не можете редактировать свои сообщения
Вы не можете удалять свои сообщения
Вы не можете голосовать в опросах
Вы не можете прикреплять файлы к сообщениям
Вы не можете скачивать файлы