X

Привет, дорогой друг!

У тебя установлено расширение AdBlock или подобное. Добавь наш сайт в белый список, и тем самым внесешь свой вклад в его развитие. Инструкция как отключить AdBlock
Регистрация ·
Имя: Пароль:  
· Забыли пароль?
 FREELEECH СКАЧАННОЕ НЕ УЧИТЫВАЕТСЯ! 


Тайна магазина игрушек / Tea Pets (Гэри Ван) [2017, Мультфильм, семейный, фэнтези, приключения, WEB-DLRip-AVC] от OlLanDGroup | Локализованная версия | iTunes

Ответить на тему
 
Автор

Сообщение

Rtuty ®

Пол: Мужской

Стаж: 5 месяцев 22 дня

Сообщений: 744

Репутация: 566

[+] [-]

Награды: 4 (Подробнее)

Boss (Количество: 1) Meloman (Количество: 1) Prestige (Количество: 1)

Вне форума

[Профиль] [ЛС]

Создавать темы 20-Ноя-2018 14:07

[Цитировать]

Тайна магазина игрушек / Tea Pets
«Выгони их, если сможешь»-

Год выпуска: 2017
Страна: Китай
Производство: Light Chaser Animation Studios
Жанр: Мультфильм, семейный, фэнтези, приключения
Режиссёр: Гэри Ван
В ролях: Ши Лэй, Юань Цзэюй, Цзи Гуаньлинь, Хун Хуан, Чжан Лэй, Янь Яньшэн, Ивонн Чжао
Перевод: Дублированный | [iTunes]
Субтитры: Нет
Реклама: Отсутствует
Описание: Робот Таймбот попадает на землю, после того, как его космический корабль потерпел крушение. Он попадает в магазин игрушек, где его обитатели, жили своей тихой и спокойной жизнью, играли, а по ночам пугали друг друга историями о некоем «Правителе Подземелья», который с помощью своих верных помощников, крыс Шмыгуна и Пискуна, похищает их друзей из соседних магазинов. В один из дней, пропадает их подружка Мэй, и игрушки, во главе с Таймботом убегают из магазина и отправляются в город на ее поиски. С этого и начинаются интересные, полные юмора и приключений путешествия маленьких героев под недоуменные взгляды городских жителей.

Качество: WEB-DLRip-AVC | iTunes Version |
Продолжительность: 01:37:34
Формат: MKV
Видео кодек: MPEG-4 AVC
Аудио кодек: AC3
Видео: 1024x428 (2.40:1), 24,000 fps, x264 ~1 811 kbps avg, 0.172 bit/pixel
Аудио #1: 48 kHz, AC3 Dolby Digital Plus, 3/2 (L,C,R,l,r) + LFE ch, ~384.00 kbps avg | RUS (iTunes)
Дата премьеры (мир): 20 мая 2017
Дата премьеры (РФ): 18 октября 2018, «Ten Letters»
Цифровой релиз: 20 ноября 2018, «Ten Letters»

Релиз от:

MediaInfo

Общее
Уникальный идентификатор : 287597338700691261879936291568707085202 (0xD85D3B8F25325ECEFA946A4EC376A392)
Полное имя : F:OlLanDGroupTea.Pets.2017.WEB-DLRip(AVC).OlLanDGroup.mkv
Формат : Matroska
Версия формата : Version 4 / Version 2
Размер файла : 1,50 Гбайт
Продолжительность : 1 ч. 37 м.
Общий поток : 2198 Кбит/сек
Название фильма : Tea.Pets.2017 #TorpedoUK#
Дата кодирования : UTC 2018-11-20 13:48:26
Программа кодирования : mkvmerge v25.0.0 ('Prog Noir') 64-bit
Библиотека кодирования : libebml v1.3.6 + libmatroska v1.4.9
Обложка : Yes
Attachments : cover.png
Видео
Идентификатор : 1
Формат : AVC
Формат/Информация : Advanced Video Codec
Профиль формата : High@L4.1
Параметр CABAC формата : Да
Параметр ReFrames формата : 10 кадров
Идентификатор кодека : V_MPEG4/ISO/AVC
Продолжительность : 1 ч. 37 м.
Битрейт : 1811 Кбит/сек
Ширина : 1024 пикселя
Высота : 428 пикселей
Соотношение сторон : 2,40:1
Режим частоты кадров : Постоянный
Частота кадров : 24,000 кадра/сек
Цветовое пространство : YUV
Субдискретизация насыщенности : 4:2:0
Битовая глубина : 8 бит
Тип развёртки : Прогрессивная
Бит/(Пиксели*Кадры) : 0.172
Размер потока : 1,23 Гбайт (82%)
Библиотека кодирования : x264 core 146 r2538 121396c
Настройки программы : cabac=1 / ref=10 / deblock=1:-2:-3 / analyse=0x3:0x113 / me=umh / subme=10 / psy=1 / psy_rd=0.95:0.07 / mixed_ref=1 / me_range=48 / chroma_me=1 / trellis=2 / 8x8dct=1 / cqm=0 / deadzone=21,11 / fast_pskip=1 / chroma_qp_offset=-3 / threads=6 / lookahead_threads=1 / sliced_threads=0 / nr=0 / decimate=1 / interlaced=0 / bluray_compat=0 / constrained_intra=0 / bframes=11 / b_pyramid=2 / b_adapt=2 / b_bias=0 / direct=3 / weightb=1 / open_gop=0 / weightp=2 / keyint=240 / keyint_min=24 / scenecut=40 / intra_refresh=0 / rc_lookahead=40 / rc=2pass / mbtree=0 / bitrate=1811 / ratetol=1.0 / qcomp=0.60 / qpmin=0 / qpmax=69 / qpstep=4 / cplxblur=20.0 / qblur=0.5 / vbv_maxrate=50000 / vbv_bufsize=62500 / nal_hrd=none / filler=0 / ip_ratio=1.40 / pb_ratio=1.30 / aq=1:1.00
Язык : English
Default : Да
Forced : Нет
Аудио
Идентификатор : 2
Формат : AC-3
Формат/Информация : Audio Coding 3
Расширение режима : CM (complete main)
Параметр Endianness формата : Big
Идентификатор кодека : A_AC3
Продолжительность : 1 ч. 37 м.
Вид битрейта : Постоянный
Битрейт : 384 Кбит/сек
Каналы : 6 каналов
Расположение каналов : Front: L C R, Side: L R, LFE
Частота : 48,0 КГц
Частота кадров : 31,250 кадров/сек (1536 spf)
Битовая глубина : 16 бит
Метод сжатия : С потерями
Размер потока : 268 Мбайт (17%)
Заголовок : [DUB] DD 5.1 @ 384 kbps (iTunes)
Язык : Russian
Default : Да
Forced : Нет
Меню
00:00:00.000 : en:Глава 1
00:02:27.458 : en:Глава 2
00:09:17.333 : en:Глава 3
00:18:13.666 : en:Глава 4
00:26:38.207 : en:Глава 5
00:37:07.582 : en:Глава 6
00:45:30.290 : en:Глава 7
00:51:11.748 : en:Глава 8
00:57:19.539 : en:Глава 9
01:07:06.247 : en:Глава 10
01:13:12.247 : en:Глава 11
01:19:01.163 : en:Глава 12
01:28:43.371 : en:Глава 13

Скриншоты



Показать сообщения:    
Ответить на тему

Текущее время: 17-Дек 15:16

Часовой пояс: UTC ± 0



Вы не можете начинать темы
Вы не можете отвечать на сообщения
Вы не можете редактировать свои сообщения
Вы не можете удалять свои сообщения
Вы не можете голосовать в опросах
Вы не можете прикреплять файлы к сообщениям
Вы не можете скачивать файлы