FREELEECH СКАЧАННОЕ НЕ УЧИТЫВАЕТСЯ! 


Черная молния / Black Lightning / Сезон: 2 / Серии: 1-13 из 13 (Салим Акил, Билле Вудрафф) [2018, фантастика, боевик, WEB-DLRip] (MVO : LostFilm)

Ответить на тему
 
Автор

Сообщение

Mercury ®

Пол: Мужской

Стаж: 7 месяцев 23 дня

Сообщений: 964

Репутация: 569

[+] [-]

Награды: 4 (Подробнее)

Boss (Количество: 1) Meloman (Количество: 1) Prestige (Количество: 1)

Вне форума

[Профиль] [ЛС]

Создавать темы 22-Ноя-2018 20:00

[Цитировать]

Черная молния / Black Lightning- -Год выпуска: 2018
Страна: США
Жанр: фантастика, боевик
Продолжительность: 1х 00:42:00
Перевод: Профессиональный (многоголосый закадровый)
Доп. инфо о переводе: LostFilm--Режиссёр: Салим Акил , Билле Вудрафф--В ролях: Грегг Генри , Уильям Кэтлетт , Кресс Уильямс , Нафиса Уильямс , Чайна Энн МакКлейн , Кристин Адамс , Чарлби Дин Крик , Devon Mckelvin , Shein Mompremier , Энтони Рейнольдс--Описание: На первый взгляд Джефферсон Пирс — обычный директор школы, который добился успехов на профессиональном поприще и не дал многим подросткам пойти по кривой дорожке. Однако в семейной жизни дела у него обстоят не так гладко. Пирс разведен и воспитывает двух дочерей. Младшая в силу возраста любит вечеринки и тусовки. Старшая же посвятила себя медицине, но, являясь социальной активисткой, все время попадает в неприятности. Есть у почтенного директора и свой скелет в шкафу. Мало кто знает, что Джефферсон обладает сверхспособностями и когда-то боролся с преступниками под маской Черной молнии. Девять лет назад Пирс спрятал свой костюм подальше от посторонних глаз и перестал использовать суперсилы во имя справедливости, которая стоила ему счастливого брака. Однако теперь в городке Фриленд вновь процветают уличная преступность, расизм, наркоторговля и постоянные социальные протесты. Пирс на все закрывал глаза до тех пор, пока опасность не коснулась его семьи. Бандитам снова придется озираться в ожидании возмездия — Черная молния выходит на тропу войны. Вот только какой будет цена борьбы за безопасность жителей города на этот раз? Сможет ли Пирс защитить простых людей, своих родных и не лишиться при этом собственной жизни?--Качество видео: WEB-DLRip
Формат: AVI-Видео: Xvid 720x400 23.976fps 1364kbps
Аудио: MP3 48000Hz stereo 187kbps 2ch

MediaInfo

General
Complete name : F:\Ртуть\Сериалы\black_lightning_s02e01_lostfilm_tv.avi
Format : AVI
Format/Info : Audio Video Interleave
File size : 476 MiB
Duration : 42 min 29 s
Overall bit rate mode : Variable
Overall bit rate : 1 565 kb/s
Writing application : Nandub v1.0rc2
Writing library : Nandub build 1853/release
Video
ID : 0
Format : MPEG-4 Visual
Format profile : Advanced Simple@L5
Format settings, BVOP : No
Format settings, QPel : No
Format settings, GMC : No warppoints
Format settings, Matrix : Default (MPEG)
Codec ID : XVID
Codec ID/Hint : XviD
Duration : 42 min 29 s
Bit rate : 1 365 kb/s
Width : 720 pixels
Height : 400 pixels
Display aspect ratio : 16:9
Frame rate : 23.976 (24000/1001) FPS
Original frame rate : 23.976 (23976/1000) FPS
Color space : YUV
Chroma subsampling : 4:2:0
Bit depth : 8 bits
Scan type : Progressive
Compression mode : Lossy
Bits/(Pixel*Frame) : 0.198
Stream size : 415 MiB (87%)
Writing library : XviD 1.2.1 (UTC 2008-12-04)
Audio
ID : 1
Format : MPEG Audio
Format version : Version 1
Format profile : Layer 3
Format settings : Joint stereo / MS Stereo
Codec ID : 55
Codec ID/Hint : MP3
Duration : 42 min 28 s
Bit rate mode : Variable
Bit rate : 192 kb/s
Channel(s) : 2 channels
Sampling rate : 48.0 kHz
Frame rate : 41.667 FPS (1152 SPF)
Compression mode : Lossy
Stream size : 56.9 MiB (12%)
Alignment : Aligned on interleaves
Interleave, duration : 24 ms (0.58 video frame)
Interleave, preload duration : 471 ms
Writing library : LAME3.97b
Encoding settings : -m j -V 4 -q 3 -lowpass 18.6 --abr 192

Релиз подготовлен RG Serials

Показать сообщения:    
Ответить на тему

Текущее время: 18-Фев 18:49

Часовой пояс: UTC ± 0



Вы не можете начинать темы
Вы не можете отвечать на сообщения
Вы не можете редактировать свои сообщения
Вы не можете удалять свои сообщения
Вы не можете голосовать в опросах
Вы не можете прикреплять файлы к сообщениям
Вы не можете скачивать файлы