X

Привет, дорогой друг!

У тебя установлено расширение AdBlock или подобное. Добавь наш сайт в белый список, и тем самым внесешь свой вклад в его развитие. Инструкция как отключить AdBlock
Регистрация ·
Имя: Пароль:  
· Забыли пароль?
 FREELEECH СКАЧАННОЕ НЕ УЧИТЫВАЕТСЯ! 


Не отпускай мою руку / Elimi Bırakma / Сезон: 1 / Серии: 1-20 из ?? (Садуллах Челен) [2018, драма, HDTV 720p] (DVO)

Ответить на тему
 
Автор

Сообщение

Rtuty ®

Пол: Мужской

Стаж: 5 месяцев 22 дня

Сообщений: 744

Репутация: 566

[+] [-]

Награды: 4 (Подробнее)

Boss (Количество: 1) Meloman (Количество: 1) Prestige (Количество: 1)

Вне форума

[Профиль] [ЛС]

Создавать темы 01-Дек-2018 05:45

[Цитировать]

Не отпускай мою руку / Elimi Bırakma- -Год выпуска: 2018
Страна: Турция
Жанр: драма
Продолжительность: 1х 02:33:00
Перевод: Любительский (двухголосый закадровый)--Режиссёр: Садуллах Челен--В ролях: Альп Навруз , Алина Боз , Джемре Гюмели , Батухан Экши , Долунай Сойсерт , Серай Гёзлер , Эбру Айкач , Бурак Тамдоган , Эртугрул Постоглу , Хюсейн Авни Даньял , Гёкче Янардаг , Джемре Байсел , Йигит Каан Языджы , Суэда Чиль , Ипек Филиз Языджы--Описание: Генеральный директор холдинга г-н Азми желает прибрать к рукам всю компанию. И для этого придумал коварный план. Все начинается с того, как Дженк отправляется учиться в Америку, Мелис знакомится с Эфканом, а Арда увлекается наркотиками. Таким образом не останется никого, кто будет заниматься компанией, а Азми сможет сам руководить всем. Однако план г-на Азми рушится, когда Дженк начинает меняться. Сначала Дженк приложит руку к жизни сестры и брата, а затем как и желает г-жа Фериде, начнет заниматься компанией и бороться врагами семьи. Жизнь Дженка начинается меняться, когда он знакомится с Азрой, после приезда из Америки. Поначалу Дженк собирался продать компанию и устроить свою жизнь, однако увидев как Азра заботится о брате, сам тоже начинает интересоваться своими родными. Азра, словно волшебной палочкой прикоснется к жизни Дженка, а г-жа Фериде будет оберегать ее и возьмет в свой дом, объявив, что оставляет ей все наследство. А Дженк и Азра постоянно спорят, несмотря на то, что нравятся друг другу, однако не могут признаться в этом. Обиды обоих забудутся от общей боли. Они оба потеряли отцов. Дженк впервые кому-либо признается, что обвиняет себя в смерти отца. Это признание станет первым шагом Дженка к изменениям…--Качество видео: HDTV 720p
Формат: MP4-Видео: MPEG4 Video (H264) 1280x720 25fps 699kbps
Аудио: AAC 44100Hz stereo 128kbps 2ch

MediaInfo

General
Complete name : E:\Сериалы\Ne_otpuskay_S01\ne_otpuskay_s01e01.mp4
Format : MPEG-4
Format profile : Base Media
Codec ID : isom (isom/avc1/iso6)
File size : 912 MiB
Duration : 2 h 33 min
Overall bit rate mode : Variable
Overall bit rate : 831 kb/s
Encoded date : UTC 2018-07-23 16:46:07
Tagged date : UTC 2018-07-23 16:46:07
Writing application : My MP4Box GUI 0.6.0.6 <http://my-mp4box-gui.zymichost.com>
Video
ID : 1
Format : AVC
Format/Info : Advanced Video Codec
Format profile : Main@L3.1
Format settings, CABAC : Yes
Format settings, RefFrames : 3 frames
Codec ID : avc1
Codec ID/Info : Advanced Video Coding
Duration : 2 h 33 min
Bit rate : 700 kb/s
Maximum bit rate : 3 772 kb/s
Width : 1 280 pixels
Height : 720 pixels
Display aspect ratio : 16:9
Frame rate mode : Constant
Frame rate : 25.000 FPS
Color space : YUV
Chroma subsampling : 4:2:0
Bit depth : 8 bits
Scan type : Progressive
Bits/(Pixel*Frame) : 0.030
Stream size : 768 MiB (84%)
Title : 1_track1.h264
Encoded date : UTC 2018-07-23 16:46:07
Tagged date : UTC 2018-07-23 16:46:28
Color range : Limited
Color primaries : BT.709
Transfer characteristics : BT.709
Matrix coefficients : BT.709
Audio
ID : 2
Format : AAC
Format/Info : Advanced Audio Codec
Format profile : LC
Codec ID : 40
Duration : 2 h 33 min
Bit rate mode : Variable
Bit rate : 128 kb/s
Maximum bit rate : 135 kb/s
Channel(s) : 2 channels
Channel positions : Front: L R
Sampling rate : 44.1 kHz
Frame rate : 43.066 FPS (1024 SPF)
Compression mode : Lossy
Stream size : 140 MiB (15%)
Title : 1ð_track2.aac
Encoded date : UTC 2018-07-23 16:46:22
Tagged date : UTC 2018-07-23 16:46:28
-

Релиз подготовлен RG Serials

Показать сообщения:    
Ответить на тему

Текущее время: 17-Дек 14:52

Часовой пояс: UTC ± 0



Вы не можете начинать темы
Вы не можете отвечать на сообщения
Вы не можете редактировать свои сообщения
Вы не можете удалять свои сообщения
Вы не можете голосовать в опросах
Вы не можете прикреплять файлы к сообщениям
Вы не можете скачивать файлы