X

Привет, дорогой друг!

У тебя установлено расширение AdBlock или подобное. Добавь наш сайт в белый список, и тем самым внесешь свой вклад в его развитие. Инструкция как отключить AdBlock
Регистрация ·
Имя: Пароль:  
· Забыли пароль?
 FREELEECH СКАЧАННОЕ НЕ УЧИТЫВАЕТСЯ! 


У золотого озера / На золотом пруду / На золотом озере / On golden pond (Марк Райделл / Mark Rydell) [1981, Великобритания, США, драма, BDRemux 1080p] [USA Transfer] MVO (R5) + DVO (Культура) + AVO (Михалёв) + Sub (Rus, Eng) + Original (Eng)

Ответить на тему
 
Автор

Сообщение

Rtuty ®

Пол: Мужской

Стаж: 5 месяцев 22 дня

Сообщений: 744

Репутация: 566

[+] [-]

Награды: 4 (Подробнее)

Boss (Количество: 1) Meloman (Количество: 1) Prestige (Количество: 1)

Вне форума

[Профиль] [ЛС]

Создавать темы 02-Дек-2018 13:18

[Цитировать]

У золотого озера / На золотом пруду / На золотом озере / On golden pond
Страна: Великобритания, США
Студия: Incorporated Television Company (ITC), IPC Films
Жанр: драма
Год выпуска: 1981
Продолжительность: 01:49:21
Перевод: Профессиональный (многоголосый закадровый) - R5
Перевод 2: Профессиональный (двухголосый закадровый) - телеканал "Культура"
Перевод 3: Авторский (одноголосый закадровый) - Алексей Михалёв
Субтитры: русские, английские
Оригинальная аудиодорожка: английский
Режиссер: Марк Райделл / Mark Rydell
В ролях: Кэтрин Хепбёрн, Генри Фонда, Джейн Фонда, Даг МакКиэн, Дэбни Коулмэн, Уильям Ланто, Кристофер Райделл, Трой Гэрити
Роли озвучивали (т/к Культура): Виктор Петров, Светлана Старикова.
Описание: По мотивам пьесы Эрнеста Томпсона. 80-летний профессор Норман Тэйер давно уже на пенсии. Он понимает, что жить осталось недолго, но больше смерти его волнует то, что он не может исполнять свои мужские обязанности. Еще больше он переживает разлад с дочерью. События фильма разворачиваются на берегу Золотого озера, куда приезжают профессор с женой (они считают это 48-е лето будет последним в их супружеской жизни,) и их дочь со своим приятелем и его сыном-подростком.
Доп. информация: Релиз скачан с кинозала у пользователя GazerStar, добавлена двухголоска из релиза - https://rutracker.org/forum/viewtopic.php?t=5534203 - и синхронизированная Нордером одноголоска из релиза - https://rutracker.org/forum/viewtopic.php?t=5215485.
Сэмпл: https://cloud.mail.ru/public/CqT3/8DfngmB5E
Тип релиза: BDRemux 1080p
Контейнер: MKV
Видео: 25789 Кбит/сек, AVC 1920*1080 (16:9), 23,976 кадра/сек, CABAC
Аудио: Русский, 384 Кбит/сек, 48,0 КГц, 16 бит, 2 канала, AC-3 - R5
Аудио 2: Русский, 192 Кбит/сек, 48,0 КГц, 16 бит, 2 канала, AC-3 - Культура
Аудио 3: Русский, 192 Кбит/сек, 48,0 КГц, 16 бит, 2 канала, AC-3 - Михалёв
Аудио 4: Английский, DTS MA: 2.0 / 48,0 КГц / 1563 Кбит/сек / 24 бит / (DTS Core: 2.0 / 48,0 КГц / 1509 Кбит/сек / 24 бит)
Аудио 5: Английский, DTS MA: 2.0 / 48,0 КГц / 1607 Кбит/сек / 24 бит / (DTS Core: 2.0 / 48,0 КГц / 1509 Кбит/сек / 24 бит) - комментарии
Формат субтитров: softsub (SRT)

MediaInfo

Общее
Уникальный идентификатор : 19888816225565794019804776985656307656 (0xEF6725924C21BFD7E0F9CF9B7202FC8)
Полное имя : U:\MONAR\Художественные фильмы\Зарубежное кино\У золотого озера (1981) BDRemux 1080p.mkv
Формат : Matroska
Версия формата : Version 4
Размер файла : 22,7 Гбайт
Продолжительность : 1 ч. 49 м.
Режим общего битрейта : Переменный
Общий поток : 29,7 Мбит/сек
Название фильма : On golden pond (1981)
Дата кодирования : UTC 2018-12-02 11:52:37
Программа кодирования : mkvmerge v29.0.0 ('Like It Or Not') 64-bit
Библиотека кодирования : libebml v1.3.6 + libmatroska v1.4.9
Видео
Идентификатор : 1
Формат : AVC
Формат/Информация : Advanced Video Codec
Профиль формата : High@L4.1
Настройки формата : CABAC / 4 Ref Frames
Параметр CABAC формата : Да
Параметр RefFrames формата : 4 кадра
Идентификатор кодека : V_MPEG4/ISO/AVC
Продолжительность : 1 ч. 49 м.
Вид битрейта : Переменный
Битрейт : 25,8 Мбит/сек
Максимальный битрейт : 28,0 Мбит/сек
Ширина : 1920 пикселей
Высота : 1080 пикселей
Соотношение сторон : 16:9
Режим частоты кадров : Постоянный
Частота кадров : 23,976 (24000/1001) кадра/сек
Цветовое пространство : YUV
Субдискретизация насыщенности : 4:2:0
Битовая глубина : 8 бит
Тип развёртки : Прогрессивная
Бит/(Пиксели*Кадры) : 0.519
Размер потока : 19,7 Гбайт (87%)
Язык : English
Default : Да
Forced : Нет
Аудио #1
Идентификатор : 2
Формат : AC-3
Формат/Информация : Audio Coding 3
Коммерческое название : Dolby Digital
Идентификатор кодека : A_AC3
Продолжительность : 1 ч. 49 м.
Вид битрейта : Постоянный
Битрейт : 384 Кбит/сек
Каналы : 2 канала
Channel layout : L R
Частота : 48,0 КГц
Частота кадров : 31,250 кадров/сек (1536 SPF)
Битовая глубина : 16 бит
Метод сжатия : С потерями
Размер потока : 300 Мбайт (1%)
Заголовок : MVO
Язык : Russian
ServiceKind/String : Complete Main
Default : Да
Forced : Нет
Аудио #2
Идентификатор : 3
Формат : AC-3
Формат/Информация : Audio Coding 3
Коммерческое название : Dolby Digital
Идентификатор кодека : A_AC3
Продолжительность : 1 ч. 49 м.
Вид битрейта : Постоянный
Битрейт : 192 Кбит/сек
Каналы : 2 канала
Channel layout : L R
Частота : 48,0 КГц
Частота кадров : 31,250 кадров/сек (1536 SPF)
Битовая глубина : 16 бит
Метод сжатия : С потерями
Размер потока : 150 Мбайт (1%)
Заголовок : DVO
Язык : Russian
ServiceKind/String : Complete Main
Default : Нет
Forced : Нет
Аудио #3
Идентификатор : 4
Формат : AC-3
Формат/Информация : Audio Coding 3
Коммерческое название : Dolby Digital
Идентификатор кодека : A_AC3
Продолжительность : 1 ч. 49 м.
Вид битрейта : Постоянный
Битрейт : 192 Кбит/сек
Каналы : 2 канала
Channel layout : L R
Частота : 48,0 КГц
Частота кадров : 31,250 кадров/сек (1536 SPF)
Битовая глубина : 16 бит
Метод сжатия : С потерями
Размер потока : 150 Мбайт (1%)
Заголовок : AVO
Язык : Russian
ServiceKind/String : Complete Main
Default : Нет
Forced : Нет
Аудио #4
Идентификатор : 5
Формат : DTS XLL
Формат/Информация : Digital Theater Systems
Коммерческое название : DTS-HD Master Audio
Идентификатор кодека : A_DTS
Продолжительность : 1 ч. 49 м.
Вид битрейта : Переменный
Битрейт : 1563 Кбит/сек
Каналы : 2 канала
Channel layout : L R
Частота : 48,0 КГц
Частота кадров : 93,750 кадра/сек (512 SPF)
Битовая глубина : 24 бит
Метод сжатия : Без потерь
Размер потока : 1,19 Гбайт (5%)
Заголовок : original
Язык : English
Default : Нет
Forced : Нет
Аудио #5
Идентификатор : 6
Формат : DTS XLL
Формат/Информация : Digital Theater Systems
Коммерческое название : DTS-HD Master Audio
Идентификатор кодека : A_DTS
Продолжительность : 1 ч. 49 м.
Вид битрейта : Переменный
Битрейт : 1607 Кбит/сек
Каналы : 2 канала
Channel layout : L R
Частота : 48,0 КГц
Частота кадров : 93,750 кадра/сек (512 SPF)
Битовая глубина : 24 бит
Метод сжатия : Без потерь
Размер потока : 1,23 Гбайт (5%)
Заголовок : comments
Язык : English
Default : Нет
Forced : Нет
Текст #1
Идентификатор : 7
Формат : UTF-8
Идентификатор кодека : S_TEXT/UTF8
Идентификатор кодека/Информация : UTF-8 Plain Text
Продолжительность : 1 ч. 45 м.
Битрейт : 104 бит/сек
ElementCount : 1361
Размер потока : 80,9 Кбайт (0%)
Заголовок : srt
Язык : Russian
Default : Нет
Forced : Нет
Текст #2
Идентификатор : 8
Формат : UTF-8
Идентификатор кодека : S_TEXT/UTF8
Идентификатор кодека/Информация : UTF-8 Plain Text
Продолжительность : 1 ч. 42 м.
Битрейт : 62 бит/сек
ElementCount : 1699
Размер потока : 47,4 Кбайт (0%)
Заголовок : srt
Язык : English
Default : Нет
Forced : Нет
Меню
00:00:00.000 : en:Chapter 1
00:03:48.854 : en:Chapter 2
00:11:07.292 : en:Chapter 3
00:27:59.303 : en:Chapter 4
00:44:19.615 : en:Chapter 5
00:55:08.680 : en:Chapter 6
01:01:37.611 : en:Chapter 7
01:16:40.054 : en:Chapter 8
01:33:44.828 : en:Chapter 9

Скриншоты

Показать сообщения:    
Ответить на тему

Текущее время: 17-Дек 15:23

Часовой пояс: UTC ± 0



Вы не можете начинать темы
Вы не можете отвечать на сообщения
Вы не можете редактировать свои сообщения
Вы не можете удалять свои сообщения
Вы не можете голосовать в опросах
Вы не можете прикреплять файлы к сообщениям
Вы не можете скачивать файлы