X

Привет, дорогой друг!

У тебя установлено расширение AdBlock или подобное. Добавь наш сайт в белый список, и тем самым внесешь свой вклад в его развитие. Инструкция как отключить AdBlock
Регистрация ·
Имя: Пароль:  
· Забыли пароль?
 FREELEECH СКАЧАННОЕ НЕ УЧИТЫВАЕТСЯ! 


Звёздный путь: Дискавери / Star Trek: Discovery / Сезон: 1 / Серии: 1-15 из 15 (Акива Голдсман, Адам Кэйн, Ли Роуз) [2017, США, Приключения, фантастика, BDRemux 1080p] 2xMVO (SDI Media | LostFilm) + Original + Sub (Rus, Eng)

Ответить на тему
 
Автор

Сообщение

Rtuty ®

Пол: Мужской

Стаж: 5 месяцев 22 дня

Сообщений: 744

Репутация: 566

[+] [-]

Награды: 4 (Подробнее)

Boss (Количество: 1) Meloman (Количество: 1) Prestige (Количество: 1)

Вне форума

[Профиль] [ЛС]

Создавать темы 02-Дек-2018 13:30

[Цитировать]

Звёздный путь: Дискавери / Star Trek: Discovery- • Год выпуска: 2017
• Страна: США
• Жанр: Приключения, фантастика
• Продолжительность: ~ 00:40:00-• Перевод: Профессиональный (многоголосый закадровый) | SDI Media
• Перевод: Профессиональный (многоголосый закадровый) | LostFilm-• Режиссёр: Акива Голдсман, Адам Кэйн, Ли Роуз-• В ролях: Джейсон Айзекс, Даг Джонс, Шазад Латиф, Сонеква Мартин, Молик Панчоли, Энтони Рэпп, Мишель Йео, Кеннет Митчелл, Дэймон Рунян-• Описание: Шестой научно-фантастический телевизионный сериал вселенной «Звёздного пути». За 10 лет до событий Star Trek TOS экипаж корабля USS Discovery NCC-1031 отправляется в путешествие, чтобы изучать глубокий космос, открывая новые миры и цивилизации.-[box=#aed8ff,#003465]Ссылка на предыдущие и альтернативные раздачи[/box]- -• Источник: Star.Trek.Discovery.S01.1080p.BluRay.AVC.DTS-HD.MA.5.1-HDBEE
• Качество: [font=serif1]BD-Remux 1080p
• Контейнер: [font=serif1]MKV
• Видео: [font=serif1]1920x1080, 23.976 fps, MPEG-4 AVC, ~20700 kbps
• Аудио Rus: [font=serif1] 48 kHz, DTS-HD MA, 3/2 (L,C,R,l,r) + LFE ch, ~3663.00 kbps | SDI Media
• Аудио Rus: [font=serif1] 48 kHz, DTS-HD MA, 3/2 (L,C,R,l,r) + LFE ch, ~3663.00 kbps | LostFilm
• Аудио Eng: [font=serif1] 48 kHz, DTS-HD MA, 3/2 (L,C,R,l,r) + LFE ch, ~3663.00 kbps
• Субтитры: [font=serif1]Русские (Forced | Full), английские (Forced | Full)
• Реклама: [font=serif1]Отсутствует-

✘ Релиз ✘

Работа со звуком: serial_M
-

Список серий

01. Вулканское приветствие / The Vulcan Hello
02. Битва у двойной звезды / Battle at the Binary Stars
03. Короли действуют по ситуации / Context is for Kings
04. Мясницкий нож глух к блеянью ягненка / The Butcher's Knife Cares Not for the Lamb's Cry
05. Выбери свою боль / Choose Your Pain
06. Лета / Lethe
07. Соблазн, ослеплявший порою и мудрых / Magic to Make The Sanest Man Go Mad
08. Хочешь мира, готовься к войне / Si Vis Pacem, Para Bellum
09. Я отправился в лес / Into the Forest I Go
10. Вопреки себе / Despite Yourself
11. Внутренний волк / The Wolf Inside
12. Безудержное честолюбие / Vaulting Ambition
13. Все, что случилось с нами, лишь пролог / What's Past is Prologue
14. Война вокруг, война внутри / The War Without, The War Within
15. Примешь мою руку? / Will You Take My Hand?
-

MediaInfo

General
Unique ID : 325450350237299169734007849653108662026 (0xF4D7751E487685DE71DBC107047EDF0A)
Complete name : M:\Films\Star.Trek.Discovery.S01.BDRemux.1080p.Rus.Eng\Star.Trek.Discovery.S01E01.BDRemux.1080p.Rus.Eng.mkv
Format : Matroska
Format version : Version 4 / Version 2
File size : 9.39 GiB
Duration : 42 min 37 s
Overall bit rate mode : Variable
Overall bit rate : 31.5 Mb/s
Movie name : Star Trek Discovery 1x01 (2017) - Release serial_M
Encoded date : UTC 2018-11-24 10:01:17
Writing application : mkvmerge v20.0.0 ('I Am The Sun') 64-bit
Writing library : libebml v1.3.5 + libmatroska v1.4.8
Video
ID : 1
Format : AVC
Format/Info : Advanced Video Codec
Format profile : High@L4.1
Format settings : CABAC / 4 Ref Frames
Format settings, CABAC : Yes
Format settings, ReFrames : 4 frames
Codec ID : V_MPEG4/ISO/AVC
Duration : 42 min 37 s
Bit rate mode : Variable
Bit rate : 20.7 Mb/s
Maximum bit rate : 30.0 Mb/s
Width : 1 920 pixels
Height : 1 080 pixels
Display aspect ratio : 16:9
Frame rate mode : Constant
Frame rate : 23.976 (24000/1001) FPS
Color space : YUV
Chroma subsampling : 4:2:0
Bit depth : 8 bits
Scan type : Progressive
Bits/(Pixel*Frame) : 0.417
Stream size : 6.17 GiB (66%)
Title : Star Trek Discovery 1x01 (2017) - Release serial_M
Language : English
Default : Yes
Forced : No
Audio #1
ID : 2
Format : DTS
Format/Info : Digital Theater Systems
Format profile : MA / Core
Codec ID : A_DTS
Duration : 42 min 37 s
Bit rate mode : Variable / Constant
Bit rate : 3 614 kb/s / 1 509 kb/s
Channel(s) : 6 channels
Channel positions : Front: L C R, Side: L R, LFE
Sampling rate : 48.0 kHz
Frame rate : 93.750 FPS (512 SPF)
Bit depth : 24 bits
Compression mode : Lossless / Lossy
Stream size : 1.08 GiB (11%)
Title : SDI Media
Language : Russian
Default : Yes
Forced : No
Audio #2
ID : 3
Format : DTS
Format/Info : Digital Theater Systems
Format profile : MA / Core
Codec ID : A_DTS
Duration : 42 min 37 s
Bit rate mode : Variable / Constant
Bit rate : 3 633 kb/s / 1 509 kb/s
Channel(s) : 6 channels
Channel positions : Front: L C R, Side: L R, LFE
Sampling rate : 48.0 kHz
Frame rate : 93.750 FPS (512 SPF)
Bit depth : 24 bits
Compression mode : Lossless / Lossy
Stream size : 1.08 GiB (12%)
Title : LostFilm
Language : Russian
Default : No
Forced : No
Audio #3
ID : 4
Format : DTS
Format/Info : Digital Theater Systems
Format profile : MA / Core
Codec ID : A_DTS
Duration : 42 min 36 s
Bit rate mode : Variable / Constant
Bit rate : 3 541 kb/s / 1 509 kb/s
Channel(s) : 6 channels
Channel positions : Front: L C R, Side: L R, LFE
Sampling rate : 48.0 kHz
Frame rate : 93.750 FPS (512 SPF)
Bit depth : 24 bits
Compression mode : Lossless / Lossy
Stream size : 1.05 GiB (11%)
Title : English
Language : English
Default : No
Forced : No
Text #1
ID : 5
Format : UTF-8
Codec ID : S_TEXT/UTF8
Codec ID/Info : UTF-8 Plain Text
Duration : 40 min 55 s
Bit rate : 12 b/s
Count of elements : 92
Stream size : 3.73 KiB (0%)
Title : rus-forced
Language : Russian
Default : Yes
Forced : Yes
Text #2
ID : 6
Format : UTF-8
Codec ID : S_TEXT/UTF8
Codec ID/Info : UTF-8 Plain Text
Duration : 41 min 36 s
Bit rate : 133 b/s
Count of elements : 651
Stream size : 40.8 KiB (0%)
Title : rus-sub
Language : Russian
Default : No
Forced : No
Text #3
ID : 7
Format : UTF-8
Codec ID : S_TEXT/UTF8
Codec ID/Info : UTF-8 Plain Text
Duration : 29 min 35 s
Bit rate : 8 b/s
Count of elements : 65
Stream size : 1.89 KiB (0%)
Title : eng-forced
Language : English
Default : No
Forced : No
Text #4
ID : 8
Format : UTF-8
Codec ID : S_TEXT/UTF8
Codec ID/Info : UTF-8 Plain Text
Duration : 41 min 36 s
Bit rate : 79 b/s
Count of elements : 623
Stream size : 24.3 KiB (0%)
Title : eng-sub
Language : English
Default : No
Forced : No
Menu
00:00:00.000 : en:Chapter 1
00:07:28.114 : en:Chapter 2
00:19:26.456 : en:Chapter 3
00:26:15.240 : en:Chapter 4
00:34:06.377 : en:Chapter 5
00:42:05.272 : en:Chapter 6
-

Скриншоты

-

Внимание! Раздача ведётся путём добавления новых серий

Внимание! Раздача ведётся путём добавления новых серий; при каждом добавлении создаётся новый торрент. Чтобы начать докачку новой серии, пользователям необходимо сделать следующее:
(1) остановить скачивание,
(2) удалить старый торрент у себя из клиента (старые серии удалять не надо),
(3) скачать новый торрент и запустить его у себя в клиенте вместо старого, при этом указать клиенту путь в старую папку куда и должно происходить скачивание новых серий.
Ваш клиент при этом должен произвести хеширование (проверку) старой папки (если не производит сам - помогите ему сделать это), и будет докачивать только те серии которых у вас ещё нет. Старые серии при этом не удаляются, а продолжают раздаваться!
Eсли вы уже удалили старые серии, то предотвратить повторную закачку старых серий можно, отжав галочку в соответствующих местах при запуске нового торрента. По возможности, желательно не удалять старые серии как можно дольше чтобы релизёр не столько продолжал раздавать старые серии, а смог сконцентрироваться на новых.
Показать сообщения:    
Ответить на тему

Текущее время: 17-Дек 14:51

Часовой пояс: UTC ± 0



Вы не можете начинать темы
Вы не можете отвечать на сообщения
Вы не можете редактировать свои сообщения
Вы не можете удалять свои сообщения
Вы не можете голосовать в опросах
Вы не можете прикреплять файлы к сообщениям
Вы не можете скачивать файлы