X

Привет, дорогой друг!

У тебя установлено расширение AdBlock или подобное. Добавь наш сайт в белый список, и тем самым внесешь свой вклад в его развитие. Инструкция как отключить AdBlock
Регистрация ·
Имя: Пароль:  
· Забыли пароль?
 FREELEECH СКАЧАННОЕ НЕ УЧИТЫВАЕТСЯ! 


Город грехов / Sin City (Фрэнк Миллер, Роберт Родригес, Квентин Тарантино) [2005, боевик, триллер, криминал, детектив, BDRip 720p] | D, P, A | Recut Extended Unrated

Ответить на тему
 
Автор

Сообщение

Rtuty ®

Пол: Мужской

Стаж: 5 месяцев 22 дня

Сообщений: 744

Репутация: 566

[+] [-]

Награды: 4 (Подробнее)

Boss (Количество: 1) Meloman (Количество: 1) Prestige (Количество: 1)

Вне форума

[Профиль] [ЛС]

Создавать темы 02-Дек-2018 16:13

[Цитировать]

Информация о фильме
Название: Город грехов
Оригинальное название: Sin City
Год выхода: 2005
Жанр: боевик, триллер, криминал, детектив
Режиссер: Фрэнк Миллер, Роберт Родригес, Квентин Тарантино
В ролях: Брюс Уиллис, Микки Рурк, Клайв Оуэн, Розарио Доусон, Джессика Альба, Бенисио Дель Торо, Джейми Кинг, Ник Стал, Девон Аоки
О фильме:
Город грехов — это адская бездна преступлений. Один из его жителей пытается найти убийцу своей подруги. Другой, фотограф, случайно становится свидетелем убийства полицейского и старается скрыть преступление. Спуститесь по глухому переулку города, и вы найдёте кое-что ещё. В Городе грехов полиция коррумпирована и улицы смертельно опасны…

Страна: США
Студия: Dimension Films, Troublemaker Studios
Продолжительность: 02:21:45
Перевод: Дубляж, многоголосый, aвторский (одноголосый)
Файл
Кодек: MPEG4 Video (H264)
Качество: BDRip 720p
Видео: 1280X688 (1.85:1), 23.976 fps, ~5 108 kbps avg
Аудио №1: ac3, 48000 Hz, 5.1, 448 kb/s | DUB - Дублированный (вставки MVO Позитив-Мультимедиа на расширенные места)
Аудио №2: ac3, 48000 Hz, 5.1, 448 kb/s | MVO - Многоголосый закадровый | Позитив-Мультимедиа
Аудио №3: ac3, 48000 Hz, 5.1, 448 kb/s | AVO - Авторский одноголосый закадровый | Михаил "kyberpunk" Яроцкий
Субтитры: русские, английские
Сэмпл

Скриншоты

Отчёт MediaInfo:

General
Unique ID : 92842122999768379732288808845855470194 (0x45D8BE131367F2971607EC978A04B272)
Complete name : C:DownloadsГород грехов.mkv
Format : Matroska
Format version : Version 4
File size : 6.39 GiB
Duration : 2 h 21 min
Overall bit rate : 6 455 kb/s
Encoded date : UTC 2018-12-02 13:25:51
Writing application : mkvmerge v28.2.0 ('The Awakening') 64-bit
Writing library : libebml v1.3.6 + libmatroska v1.4.9
Cover : Yes
Attachments : cover.jpg
Video
ID : 1
Format : AVC
Format/Info : Advanced Video Codec
Format profile : High@L4.1
Format settings : CABAC / 10 Ref Frames
Format settings, CABAC : Yes
Format settings, ReFrames : 10 frames
Codec ID : V_MPEG4/ISO/AVC
Duration : 2 h 21 min
Bit rate : 5 108 kb/s
Width : 1 280 pixels
Height : 688 pixels
Display aspect ratio : 1.85:1
Frame rate mode : Constant
Frame rate : 23.976 (24000/1001) FPS
Color space : YUV
Chroma subsampling : 4:2:0
Bit depth : 8 bits
Scan type : Progressive
Bits/(Pixel*Frame) : 0.242
Stream size : 5.06 GiB (79%)
Writing library : x264 core 67 r1139M 1024283
Encoding settings : cabac=1 / ref=10 / deblock=1:-3:-3 / analyse=0x3:0x133 / me=umh / subme=9 / psy_rd=1.9:0.5 / mixed_ref=1 / me_range=32 / chroma_me=1 / trellis=2 / 8x8dct=1 / cqm=2 / deadzone=21,11 / chroma_qp_offset=-2 / threads=6 / nr=0 / decimate=0 / mbaff=0 / bframes=5 / b_pyramid=1 / b_adapt=2 / b_bias=0 / direct=3 / wpredb=1 / keyint=250 / keyint_min=25 / scenecut=40 / rc=2pass / bitrate=5108 / ratetol=1.0 / qcomp=0.60 / qpmin=10 / qpmax=51 / qpstep=4 / cplxblur=20.0 / qblur=0.5 / ip_ratio=1.40 / pb_ratio=1.30 / aq=1:0.80
Default : Yes
Forced : No
Audio #1
ID : 2
Format : AC-3
Format/Info : Audio Coding 3
Commercial name : Dolby Digital
Codec ID : A_AC3
Duration : 2 h 21 min
Bit rate mode : Constant
Bit rate : 448 kb/s
Channel(s) : 6 channels
Channel layout : L R C LFE Ls Rs
Sampling rate : 48.0 kHz
Frame rate : 31.250 FPS (1536 SPF)
Bit depth : 16 bits
Compression mode : Lossy
Delay relative to video : 28 ms
Stream size : 454 MiB (7%)
Title : Dub + MVO
Language : Russian
Service kind : Complete Main
Default : Yes
Forced : Yes
Audio #2
ID : 3
Format : AC-3
Format/Info : Audio Coding 3
Commercial name : Dolby Digital
Codec ID : A_AC3
Duration : 2 h 21 min
Bit rate mode : Constant
Bit rate : 448 kb/s
Channel(s) : 6 channels
Channel layout : L R C LFE Ls Rs
Sampling rate : 48.0 kHz
Frame rate : 31.250 FPS (1536 SPF)
Bit depth : 16 bits
Compression mode : Lossy
Stream size : 454 MiB (7%)
Title : MVO Pozitive Multimedia
Language : Russian
Service kind : Complete Main
Default : No
Forced : No
Audio #3
ID : 4
Format : AC-3
Format/Info : Audio Coding 3
Commercial name : Dolby Digital
Codec ID : A_AC3
Duration : 2 h 21 min
Bit rate mode : Constant
Bit rate : 448 kb/s
Channel(s) : 6 channels
Channel layout : L R C LFE Ls Rs
Sampling rate : 48.0 kHz
Frame rate : 31.250 FPS (1536 SPF)
Bit depth : 16 bits
Compression mode : Lossy
Stream size : 454 MiB (7%)
Title : AVO kyberpunk
Language : Russian
Service kind : Complete Main
Default : No
Forced : No
Text #1
ID : 5
Format : UTF-8
Codec ID : S_TEXT/UTF8
Codec ID/Info : UTF-8 Plain Text
Duration : 2 h 17 min
Bit rate : 107 b/s
Count of elements : 1908
Stream size : 108 KiB (0%)
Language : Russian
Default : No
Forced : No
Text #2
ID : 6
Format : UTF-8
Codec ID : S_TEXT/UTF8
Codec ID/Info : UTF-8 Plain Text
Duration : 2 h 17 min
Bit rate : 75 b/s
Count of elements : 1800
Stream size : 75.9 KiB (0%)
Language : English
Default : No
Forced : No
Показать сообщения:    
Ответить на тему

Текущее время: 17-Дек 15:06

Часовой пояс: UTC ± 0



Вы не можете начинать темы
Вы не можете отвечать на сообщения
Вы не можете редактировать свои сообщения
Вы не можете удалять свои сообщения
Вы не можете голосовать в опросах
Вы не можете прикреплять файлы к сообщениям
Вы не можете скачивать файлы