X

Привет, дорогой друг!

У тебя установлено расширение AdBlock или подобное. Добавь наш сайт в белый список, и тем самым внесешь свой вклад в его развитие. Инструкция как отключить AdBlock
Регистрация ·
Имя: Пароль:  
· Забыли пароль?
 FREELEECH СКАЧАННОЕ НЕ УЧИТЫВАЕТСЯ! 


Хищник 2 / Predator 2 (Стивен Хопкинс) [1990, Фантастика, Боевик, Триллер, WEB-DLRip] Hand Made 50 FPS

Ответить на тему
 
Автор

Сообщение

ndg ®

Пол: Мужской

Стаж: 4 месяца 10 дней

Сообщений: 51

Репутация: 315

[+] [-]

Откуда: Челябинск



Награды: Нет

Вне форума

[Профиль] [ЛС]

Создавать темы 09-Июл-2018 18:26

[Цитировать]

- Хищник 2 / Predator 2 - Производство: США, 20th Century Fox Film Corporation, Davis Entertainment, Lawrence Gordon Productions, Silver Pictures
Жанр: Фантастика, Боевик, Триллер
Режиссер: Стивен Хопкинс
Актеры: Дэнни Гловер, Гэри Бьюзи, Рубен Блэйдс, Мария Кончита Алонсо, Билл Пэкстон, Роберт Дави, Адам Болдуин, Кевин Питер Холл, Кент МакКорд, Мортон Дауни мл.
Описание:
Харриган - крутой полицейский отдела по борьбе с наркотиками полиции Лос-Анджелеса. Ему поручено расследование серии убийств крупных криминальных авторитетов города. Все убийства совершены в извращенной форме и пахнут неприкрытым садизмом. После проведения экспертиз и расследований становится ясно, что убийство - дело рук существа, не имеющего ничего общего с человеком. Землю опять посетил межпланетный охотник, но ему придется столкнуться с существом еще более опасным, чем он сам - с человеком. Харриган выслеживает охотника, постепенно сам становясь охотником. Один на один, как настоящий воин, он ведет бескомпромиссную битву за сохранение чести и права человека не быть существом, на которое можно охотиться.
https://www.kinopoisk.ru/film/2230/
Релиз от: Mastersnof ®
Продолжительность: 01:48:07
Качество видео: WEB-DLRip https://cloud.mail.ru/public/6Zaw/kFR7gmBrH
Перевод: Двуголосый закадровый
Субтитры: отсутствуют
Видео: Xvid, 720x406, ~2142 kb/s
Аудио: AC3, 6 ch, 512 kb/s (П. Гланц и И. Королёва)

МИ

General
Complete name : Predator 2-1990 WEB-DLRip.avi
Format : AVI
Format/Info : Audio Video Interleave
Format profile : OpenDML
File size : 2.02 GiB
Duration : 1 h 48 min
Overall bit rate : 2 669 kb/s
Writing application : Lavf57.71.100
Video
ID : 0
Format : MPEG-4 Visual
Format profile : Advanced Simple@L5
Format settings : BVOP4
Format settings, BVOP : 4
Format settings, QPel : No
Format settings, GMC : No warppoints
Format settings, Matrix : Default (MPEG)
Codec ID : XVID
Codec ID/Hint : XviD
Duration : 1 h 48 min
Bit rate : 2 142 kb/s
Width : 720 pixels
Height : 406 pixels
Display aspect ratio : 16:9
Frame rate : 47.952 (48000/1001) FPS
Original frame rate : 23.976 (24000/1001) FPS
Color space : YUV
Chroma subsampling : 4:2:0
Bit depth : 8 bits
Scan type : Progressive
Compression mode : Lossy
Bits/(Pixel*Frame) : 0.153
Stream size : 1.62 GiB (80%)
Title : WEB-DL 1080p (Amazon)
Writing library : XviD 67
Audio
ID : 1
Format : AC-3
Format/Info : Audio Coding 3
Format settings, Endianness : Big
Codec ID : 2000
Duration : 1 h 48 min
Bit rate mode : Constant
Bit rate : 512 kb/s
Channel(s) : 6 channels
Channel positions : Front: L C R, Side: L R, LFE
Sampling rate : 48.0 kHz
Frame rate : 31.250 FPS (1536 SPF)
Bit depth : 16 bits
Compression mode : Lossy
Stream size : 396 MiB (19%)
Alignment : Aligned on interleaves
Interleave, duration : 32 ms (1.53 video frames)
Title : DTS 5.1 1509Kbps (Профессиональный, двухголосый - П. Гланц и И. Королёва)
Service kind : Complete Main
Скриншоты:
Показать сообщения:    
Ответить на тему

Текущее время: 16-Ноя 14:33

Часовой пояс: UTC ± 0



Вы не можете начинать темы
Вы не можете отвечать на сообщения
Вы не можете редактировать свои сообщения
Вы не можете удалять свои сообщения
Вы не можете голосовать в опросах
Вы не можете прикреплять файлы к сообщениям
Вы не можете скачивать файлы