X

Привет, дорогой друг!

У тебя установлено расширение AdBlock или подобное. Добавь наш сайт в белый список, и тем самым внесешь свой вклад в его развитие. Инструкция как отключить AdBlock
Регистрация ·
Имя: Пароль:  
· Забыли пароль?
 FREELEECH СКАЧАННОЕ НЕ УЧИТЫВАЕТСЯ! 


Летящие сквозь ночь / Nightflyers / Сезон: 1 / Серии: 1-4 из 10 (Эндрю МакКарти, Мэгги Кили, Майк Кэхилл) [2018, Ужасы, Драма, Фантастика, WEBRip] (MVO : LostFilm)

Ответить на тему
 
Автор

Сообщение

Rtuty ®

Пол: Мужской

Стаж: 5 месяцев 22 дня

Сообщений: 744

Репутация: 566

[+] [-]

Награды: 4 (Подробнее)

Boss (Количество: 1) Meloman (Количество: 1) Prestige (Количество: 1)

Вне форума

[Профиль] [ЛС]

Создавать темы 05-Дек-2018 07:47

[Цитировать]

Летящие сквозь ночь / Nightflyers- -Год выпуска: 2018
Страна: США
Жанр: Ужасы, Драма, Фантастика
Продолжительность: 1х 00:58:00
Перевод: Профессиональный (многоголосый закадровый)
Доп. инфо о переводе: LostFilm--Режиссёр: Эндрю МакКарти, Мэгги Кили, Майк Кэхилл--В ролях: Бронте Кармайкл, Филлип Риз, Миранда Рэйсон, Gwynne McElveen, Andrea Dolente, Юссеф Керкур, Лоуренс Фалконер, Гретхен Мол, Оуэн Мэкен, Дэвид Аджала и др.--Описание: 2093 год. Эпидемия смертельной болезни сделала Землю практически непригодной для жизни. Поэтому, обнаружив инопланетный корабль, астрофизик Карл Д'Брэнин (Оуэн Мэкен) загорается идеей установить первый контакт с внеземной цивилизацией, которая, по его мнению, поможет спасти быстро сокращающуюся популяцию родной планеты. Он собирает команду на судне «Летящие сквозь ночь» и отправляется в далекий космос. Никто, в том числе ксенобиолог Роуэн (Энгус Сэмпсон), доктор Агата Мэтесон (Гретхен Мол) и кибернетик Ломми (Майя Эшет), которая общается с компьютерами, втыкая провод себе в руку, не верит в идеи Карла, однако землянам больше не на что рассчитывать. Они настолько отчаялись, что капитан Рой Эрис (Дэвид Аджала), предпочитающий общаться со своей командой через голограмму, берет на борт опасного телепата Тэйла (Сэм Страйк), умеющего проникать в головы людей. В теории его способности помогут наладить общение с инопланетянами, что, конечно, хорошо, вот только Тэйл плохо адаптирован к обществу. К тому же он любит насылать на незнакомцев кошмарные видения. Команда начинает побаивается его, а на корабле происходят странные вещи: барахлят компьютеры, а члены экипажа жалуются на жуткие галлюцинации. Все подозрения падают на телепата, но никому не приходит в голову, что корабль, летящий навстречу неизведанному, могли захватить потусторонние силы..."--Качество видео: WEBRip
Формат: AVI-Видео: Xvid 720x400 23.976fps 1091kbpss
Аудио: MP3 48000Hz stereo 185kbps 2ch

Доп. информация

Летящие сквозь ночь» — это научно-фантастический хоррор, основанный на одноименном рассказе Джорджа Р.Р. Мартина. Писатель также выступил в качестве исполнительного продюсера, поэтому поклонники экранизации «Песни Льда и Пламени» могут ожидать от сериала такой же глубокой проработки персонажей и ни на секунду не отпускающего напряжения, правда, теперь уже в глубоком космосе, а не в Семи Королевствах. Шоураннером проекта назначен Джефф Бюхлер, не понаслышке знакомый с жанром ужасов. Создатели проекта, вдохновившись боди-хоррором Дэвида Кроненберга, смешивают биологию и технологии, прекрасно визуализируя футуристичную идею. Кроме того, большое внимание сериал уделяет спецэффектам, с помощью которых зрители погружаются в кошмарные видения главных героев. Создающее атмосферу клаустрофобного ужаса шоу придется по вкусу как фанатам тихо крадущегося ксеноморфа из «Чужого», так и почитателям методичного робота-убийцы Хэла из «Космической одиссеи» Стэнли Кубрика.

MediaInfo

General
Complete name : F:\Ртуть\Сериалы\Nightflyers.S01E01.rus.LostFilm.TV.avi
Format : AVI
Format/Info : Audio Video Interleave
File size : 539 MiB
Duration : 58 min 29 s
Overall bit rate mode : Variable
Overall bit rate : 1 289 kb/s
Writing application : Nandub v1.0rc2
Writing library : Nandub build 1853/release
Video
ID : 0
Format : MPEG-4 Visual
Format profile : Advanced Simple@L5
Format settings, BVOP : No
Format settings, QPel : No
Format settings, GMC : No warppoints
Format settings, Matrix : Default (MPEG)
Codec ID : XVID
Codec ID/Hint : XviD
Duration : 58 min 29 s
Bit rate : 1 091 kb/s
Width : 720 pixels
Height : 400 pixels
Display aspect ratio : 16:9
Frame rate : 23.976 (24000/1001) FPS
Original frame rate : 23.976 (23976/1000) FPS
Color space : YUV
Chroma subsampling : 4:2:0
Bit depth : 8 bits
Scan type : Progressive
Compression mode : Lossy
Bits/(Pixel*Frame) : 0.158
Stream size : 456 MiB (85%)
Writing library : XviD 1.2.1 (UTC 2008-12-04)
Audio
ID : 1
Format : MPEG Audio
Format version : Version 1
Format profile : Layer 3
Format settings : Joint stereo
Codec ID : 55
Codec ID/Hint : MP3
Duration : 58 min 28 s
Bit rate mode : Variable
Bit rate : 192 kb/s
Channel(s) : 2 channels
Sampling rate : 48.0 kHz
Frame rate : 41.667 FPS (1152 SPF)
Compression mode : Lossy
Stream size : 77.6 MiB (14%)
Alignment : Aligned on interleaves
Interleave, duration : 24 ms (0.58 video frame)
Interleave, preload duration : 451 ms
Writing library : LAME3.97b
Encoding settings : -m j -V 4 -q 3 -lowpass 18.6 --abr 192

Релиз подготовлен RG Serials

Показать сообщения:    
Ответить на тему

Текущее время: 17-Дек 15:10

Часовой пояс: UTC ± 0



Вы не можете начинать темы
Вы не можете отвечать на сообщения
Вы не можете редактировать свои сообщения
Вы не можете удалять свои сообщения
Вы не можете голосовать в опросах
Вы не можете прикреплять файлы к сообщениям
Вы не можете скачивать файлы