FREELEECH СКАЧАННОЕ НЕ УЧИТЫВАЕТСЯ! 


На обрыве [01-02 из 02] (Олег Штром) [2018, Детектив, мелодрама, HDTVRip] от GeneralFilm

Ответить на тему
 
Автор

Сообщение

Mercury ®

Пол: Мужской

Стаж: 6 месяцев 22 дня

Сообщений: 867

Репутация: 569

[+] [-]

Награды: 4 (Подробнее)

Boss (Количество: 1) Meloman (Количество: 1) Prestige (Количество: 1)

Вне форума

[Профиль] [ЛС]

Создавать темы 16-Дек-2018 04:07

[Цитировать]

Год выпуска: 2018
Жанр: Детектив, мелодрама
Выпущено: Россия, Кинокомпания Маркофф
Режиссер: Олег Штром
В ролях: Светлана Колпакова, Андрей Чадов, Леонид Громов, Дарья Калмыкова, Алексей Варущенко, Алексей Медведев, Денис Сарайкин, Галина Сазонова
О фильме: Марина Крапивина много лет копила на собственное жилье и, наконец, взяв кредит, въехала в свою квартиру. Но вскоре обнаружился обман: риелтор скрыла, что в квартире прописан отбывающий срок уголовник Мякишев. Однажды этот профессиональный грабитель появляется в квартире и остается жить на кухне, отказываясь съезжать. Но беда не приходит одна. Вскоре к Марине начинает приставать шеф. Она отказывает ему, и ее тут же увольняют. В отчаянии женщина делится проблемами с Мякишевым и случайно рассказывает ему про чёрный нал и незаконные дела фирмы. И не успевает она опомниться, как становится… организатором преступления. Сосед-уголовник грабит ее фирму и исчезает. И теперь Марине самой придется возвращать деньги…

Качество: HDTVRip
Видео: XviD, ~ 1800 Кбит/с, 720x400
Аудио: Русский (AC3, 2 ch, 192 Кбит/с)
Продолжительность: 2 x ~ 01:30:00
Перевод: Не требуется
Субтитры: нет

Скриншоты


MediaInfo

Общее
Полное имя : D:Na obryve.HDTVRip.GeneralFilm1.Na obryve.HDTVRip.GeneralFilm.avi
Формат : AVI
Формат/Информация : Audio Video Interleave
Размер файла : 1,25 Гбайт
Продолжительность : 1 ч. 29 м.
Общий поток : 1997 Кбит/сек
Программа кодирования : VirtualDubMod 1.5.10.3 | www.virtualdub-fr.org || (build 2550/release)
Библиотека кодирования : VirtualDubMod build 2550/release
Видео
Идентификатор : 0
Формат : MPEG-4 Visual
Профиль формата : Advanced Simple@L5
Параметр BVOP формата : 1
Параметр QPel формата : Нет
Параметр GMC формата : Без точки перехода
Параметр матрицы формата : Выборочная
Идентификатор кодека : XVID
Идентификатор кодека/Подсказка : XviD
Продолжительность : 1 ч. 29 м.
Битрейт : 1795 Кбит/сек
Ширина : 720 пикселей
Высота : 400 пикселей
Соотношение сторон : 16:9
Частота кадров : 25,000 кадров/сек
Цветовое пространство : YUV
Субдискретизация насыщенности : 4:2:0
Битовая глубина : 8 бит
Тип развёртки : Прогрессивная
Метод сжатия : С потерями
Бит/(Пиксели*Кадры) : 0.249
Размер потока : 1,12 Гбайт (90%)
Библиотека кодирования : XviD 1.2.1 (UTC 2008-12-04)
Аудио
Идентификатор : 1
Формат : AC-3
Формат/Информация : Audio Coding 3
Расширение режима : CM (complete main)
Параметр Endianness формата : Big
Идентификатор кодека : 2000
Продолжительность : 1 ч. 29 м.
Вид битрейта : Постоянный
Битрейт : 192 Кбит/сек
Каналы : 2 канала
Расположение каналов : Front: L R
Частота : 48,0 КГц
Частота кадров : 31,250 кадров/сек (1536 spf)
Битовая глубина : 16 бит
Метод сжатия : С потерями
Размер потока : 123 Мбайт (10%)
Выравнивание : Разделение по промежуткам
Продолжительность промежутка : 40 мс. (1,00 видеокадр)
Время предзагрузки промежутка : 500 мс.
Релиз:
Показать сообщения:    
Ответить на тему

Текущее время: 18-Янв 05:47

Часовой пояс: UTC ± 0



Вы не можете начинать темы
Вы не можете отвечать на сообщения
Вы не можете редактировать свои сообщения
Вы не можете удалять свои сообщения
Вы не можете голосовать в опросах
Вы не можете прикреплять файлы к сообщениям
Вы не можете скачивать файлы