FREELEECH СКАЧАННОЕ НЕ УЧИТЫВАЕТСЯ! 


Беглецы / Runaways / Сезон: 2 / Серии: 1-7 из 13 (Джеффри В. Бёрд) [2018, Боевик, Драма, Комиксы, Фантастика, WEB-DLRip] (MVO : LostFilm)

Ответить на тему
 
Автор

Сообщение

Mercury ®

Пол: Мужской

Стаж: 6 месяцев 22 дня

Сообщений: 867

Репутация: 569

[+] [-]

Награды: 4 (Подробнее)

Boss (Количество: 1) Meloman (Количество: 1) Prestige (Количество: 1)

Вне форума

[Профиль] [ЛС]

Создавать темы 25-Дек-2018 08:25

[Цитировать]

Беглецы / Runaways- -Год выпуска: 2018
Страна: США
Жанр: Боевик, Драма, Комиксы, Фантастика
Продолжительность: 1х 00:49:00
Перевод: Профессиональный (многоголосый закадровый)
Доп. инфо о переводе: LostFilm
Режиссёр: Джеффри В. Бёрд
В ролях: Рензи Фелиз, Лирика Окано, Вирджиния Гарднер, Ариэла Барер, Грегг Салкин, Аллегра Акоста, Кевин Уайзман, Энджел Паркер, Райан Сэндс, Энни Вершинг и другие.--Описание: Группа подростков беспечно наслаждается жизнью, пока в один момент не узнает, что их собственные родители возглавляют организацию «Прайд» — настоящую штаб-квартиру зла. Ребята быстро приходят к консенсусу, решив как можно скорее... делать ноги. Но было бы безумно скучно, будь они простыми подростками, верно? Каждый из них обнаруживает, что способен на нечто большее, чем отлынивать от школы или сбегать из дома. Герои не только получили от мам и пап невероятные способности, но и решили позаимствовать у своих семей некоторые технологии. Гертруда Йоркс (Ариэла Барер) извлекает пользу из умеющих путешествовать во времени родственников, подружившись с живым динозавром. Чейз Стэйн (Грегг Салкин) и Молли Хейз (Аллегра Акоста) вообще являются потомками безумных ученых и мутантов-телепатов. Но куда уж им до Каролины Дин (Вирджиниа Гарднер), чьи родители — инопланетные захватчики. Теперь ребятам предстоит выяснить, готовы ли они выступить против собственной семьи в сражении за счастливое будущее, или же кто-то из них пойдет против друзей и окажется по другую сторону баррикад.--Качество видео: WEB-DLRip
Формат: AVI-Видео: XviD, 720x400 (16:9), 1903 kbps (0.275 b/px), 23.98 fps
Аудио: MPEG-1 Audio layer 3, 193 kbps (VBR), 48.0 KHz, 2 ch

Доп. информация

"Жизнь подростков полна сюрпризов: то собака съест твою домашку, то температура вдруг подскочит до небес, не позволив пойти в любимую школу, а бывает, что собственные друзья втягивают в ту еще заварушку. И ведь на помощь приходят не Чудо-женщина или Железный человек, а самые обычные родители. Они накормят вас вкусным завтраком, уложат спать и даже взобьют подушку. Но что делать, если твои родители и есть виновники заварушки?.. Компания Marvel совместно с онлайн-сервисом Hulu решила отойти от полюбившихся поклонникам стереотипов в экранизации «Беглецов» — нового супергеройского сериала о необычных подростках. Боссы студии собрали команду из опытных сценаристов и режиссеров, чтобы представить миру совершенно новые грани фантастического — с динозаврами, темными магами и опасными мафиози. Это история взросления юношей и девушек, постепенно встающих на путь отчаянного героизма, а не привычные сражения могущественных богов с зелеными великанами. Не зря же здешние ребята — самые настоящие беглецы, а не какие-нибудь воители. Но они точно найдут свое место в вашем списке обязательного к просмотру, потому что адаптацией занимался сам создатель комикса Брайан К. Вон, а в команду за кадром вошли такие знатоки своего дела, как режиссер «Сорвиголовы» и «Защитников» Питер Хор и Нина Лопес-Коррадо, работавшая и с DC во «Флэше», и с Marvel в «Агентах Щ.И.Т.».

MediaInfo

General
Complete name : D:\Сериалы\Marvels.Runaways.S02E01.rus.LostFilm.TV.avi
Format : AVI
Format/Info : Audio Video Interleave
File size : 748 MiB
Duration : 49mn 46s
Overall bit rate mode : Variable
Overall bit rate : 2 102 Kbps
Writing application : Nandub v1.0rc2
Writing library : Nandub build 1853/release
Video
ID : 0
Format : MPEG-4 Visual
Format profile : Advanced Simple@L5
Format settings, BVOP : No
Format settings, QPel : No
Format settings, GMC : No warppoints
Format settings, Matrix : Default (MPEG)
Codec ID : XVID
Codec ID/Hint : XviD
Duration : 49mn 46s
Bit rate : 1 902 Kbps
Width : 720 pixels
Height : 400 pixels
Display aspect ratio : 16:9
Frame rate : 23.976 fps
Color space : YUV
Chroma subsampling : 4:2:0
Bit depth : 8 bits
Scan type : Progressive
Compression mode : Lossy
Bits/(Pixel*Frame) : 0.275
Stream size : 677 MiB (90%)
Writing library : XviD 1.2.1 (UTC 2008-12-04)
Audio
ID : 1
Format : MPEG Audio
Format version : Version 1
Format profile : Layer 3
Mode : Joint stereo
Codec ID : 55
Codec ID/Hint : MP3
Duration : 49mn 46s
Bit rate mode : Variable
Bit rate : 192 Kbps
Channel(s) : 2 channels
Sampling rate : 48.0 KHz
Compression mode : Lossy
Stream size : 66.6 MiB (9%)
Alignment : Aligned on interleaves
Interleave, duration : 24 ms (0.58 video frame)
Interleave, preload duration : 484 ms
Writing library : LAME3.97b
Encoding settings : -m j -V 4 -q 3 -lowpass 18.6 --abr 192

Релиз подготовлен RG Serials

Показать сообщения:    
Ответить на тему

Текущее время: 18-Янв 05:45

Часовой пояс: UTC ± 0



Вы не можете начинать темы
Вы не можете отвечать на сообщения
Вы не можете редактировать свои сообщения
Вы не можете удалять свои сообщения
Вы не можете голосовать в опросах
Вы не можете прикреплять файлы к сообщениям
Вы не можете скачивать файлы