FREELEECH СКАЧАННОЕ НЕ УЧИТЫВАЕТСЯ! 


Апгрейд / Upgrade (Ли Уоннелл) [2018, Фантастика, боевик, триллер, детектив, криминал, BDRip-AVC] от ExKinoRay | iTunes, P, A

Ответить на тему
 
Автор

Сообщение

Mercury ®

Пол: Мужской

Стаж: 6 месяцев 22 дня

Сообщений: 867

Репутация: 569

[+] [-]

Награды: 4 (Подробнее)

Boss (Количество: 1) Meloman (Количество: 1) Prestige (Количество: 1)

Вне форума

[Профиль] [ЛС]

Создавать темы 01-Янв-2019 03:56

[Цитировать]

Информация о фильме
Название: Апгрейд
Оригинальное название: Upgrade
Год выпуска: 2018
Жанр: Фантастика, боевик, триллер, детектив, криминал
Режиссер: Ли Уоннелл
В ролях: Логан Маршалл-Грин, Ричард Анастасиос, Роско Кэмпбелл, Ричард Коуторн, Линда Кроппер, Стив Даниелсен, Майкл М. Фостер, Бетти Гэбриел, Рена Галлахер, Харрисон Гилбертсон
О фильме:
Действие разворачивается в ближайшем будущем, в котором разнообразные технологии участвуют во всех аспектах человеческой жизни. Но в этом технологичном будущем Грей — один из немногих людей, кто любит работать руками. Он восстанавливает и чинит старые автомобили. Однажды, возвращаясь от клиента, Грей с женой попадают в аварию, а после — в руки банды отморозков, в результате чего женщина погибает, а Грей оказывается парализованным ниже шеи. Тот самый богатый клиент предлагает несчастному поставить экспериментальный имплант Stem, который может полностью восстановить подвижность.

Страна: Австралия
Студия: Blumhouse Productions, Goalpost Pictures
Продолжительность: 01:39:54
Перевод: Дубляж [iTunes], Профессиональный [многоголосый], Авторский [одноголосый]
Субтитры: Русские (форс., полные), английские (полные, SDH)
Формат: MKV
Качество: BDRip-AVC | исх. Upgrade.2018.BDREMUX.1080p.ExKinoRay |
Видео: MPEG-4 AVC, 1024x428 (2.40:1), 1522 kbps, 23,976 fps
Аудио №1: AC3 / 5.1 / 48 kHz / 384 kbps / 16 bit | Dub - iTunes
Аудио №2: AC3 / 5.1 / 48 kHz / 448 kbps / 16 bit | MVO - Jaskier
Аудио №3: AC3 / 5.1 / 48 kHz / 448 kbps / 16 bit | AVO - М.Чадов
Аудио №4: AC3 / 5.1 / 48 kHz / 448 kbps / 16 bit | ENG

МИ

General
Unique ID : 249497406327754923542331133261126659910 (0xBBB373DCE567F5F3B04CECE46D5D6F46)
Complete name : D:Upgrade.2018.BDRip.AVC.ExKinoRay.mkv
Format : Matroska
Format version : Version 2
File size : 2.27 GiB
Duration : 1 h 39 min
Overall bit rate : 3 252 kb/s
Movie name : Upgrade 2018 from ExKinoRay
Encoded date : UTC 2019-01-01 01:40:38
Writing application : mkvmerge v5.6.0 ('Kenya Kane') built on May 27 2012 16:44:04
Writing library : libebml v1.2.3 + libmatroska v1.3.0
Video
ID : 1
Format : AVC
Format/Info : Advanced Video Codec
Format profile : High@L4.1
Format settings, CABAC : Yes
Format settings, ReFrames : 12 frames
Codec ID : V_MPEG4/ISO/AVC
Duration : 1 h 39 min
Bit rate : 1 522 kb/s
Width : 1 024 pixels
Height : 428 pixels
Display aspect ratio : 2.40:1
Frame rate mode : Constant
Frame rate : 23.976 (23976/1000) FPS
Color space : YUV
Chroma subsampling : 4:2:0
Bit depth : 8 bits
Scan type : Progressive
Bits/(Pixel*Frame) : 0.145
Stream size : 1.02 GiB (45%)
Title : Enigma
Writing library : x264 core 152 r2851 ba24899
Encoding settings : cabac=1 / ref=12 / deblock=1:-2:-2 / analyse=0x3:0x113 / me=umh / subme=10 / psy=1 / psy_rd=1.05:0.10 / mixed_ref=1 / me_range=32 / chroma_me=1 / trellis=2 / 8x8dct=1 / cqm=0 / deadzone=21,11 / fast_pskip=0 / chroma_qp_offset=-3 / threads=12 / lookahead_threads=3 / sliced_threads=0 / nr=0 / decimate=0 / interlaced=0 / bluray_compat=0 / constrained_intra=0 / bframes=14 / b_pyramid=2 / b_adapt=2 / b_bias=0 / direct=3 / weightb=1 / open_gop=0 / weightp=2 / keyint=240 / keyint_min=23 / scenecut=40 / intra_refresh=0 / rc=2pass / mbtree=0 / bitrate=1522 / ratetol=1.0 / qcomp=0.65 / qpmin=0 / qpmax=51 / qpstep=4 / cplxblur=20.0 / qblur=0.5 / ip_ratio=1.30 / pb_ratio=1.20 / aq=3:0.90
Language : English
Default : Yes
Forced : No
Color range : Limited
Color primaries : BT.709
Transfer characteristics : BT.709
Matrix coefficients : BT.709
Audio #1
ID : 2
Format : AC-3
Format/Info : Audio Coding 3
Mode extension : CM (complete main)
Format settings, Endianness : Big
Codec ID : A_AC3
Duration : 1 h 39 min
Bit rate mode : Constant
Bit rate : 384 kb/s
Channel(s) : 6 channels
Channel positions : Front: L C R, Side: L R, LFE
Sampling rate : 48.0 kHz
Frame rate : 31.250 FPS (1536 spf)
Compression mode : Lossy
Stream size : 274 MiB (12%)
Title : Dub (iTunes)
Language : Russian
Default : Yes
Forced : No
Audio #2
ID : 3
Format : AC-3
Format/Info : Audio Coding 3
Mode extension : CM (complete main)
Format settings, Endianness : Big
Codec ID : A_AC3
Duration : 1 h 39 min
Bit rate mode : Constant
Bit rate : 448 kb/s
Channel(s) : 6 channels
Channel positions : Front: L C R, Side: L R, LFE
Sampling rate : 48.0 kHz
Frame rate : 31.250 FPS (1536 spf)
Compression mode : Lossy
Stream size : 320 MiB (14%)
Title : MVO [Jaskier]
Language : Russian
Default : No
Forced : No
Audio #3
ID : 4
Format : AC-3
Format/Info : Audio Coding 3
Mode extension : CM (complete main)
Format settings, Endianness : Big
Codec ID : A_AC3
Duration : 1 h 39 min
Bit rate mode : Constant
Bit rate : 448 kb/s
Channel(s) : 6 channels
Channel positions : Front: L C R, Side: L R, LFE
Sampling rate : 48.0 kHz
Frame rate : 31.250 FPS (1536 spf)
Compression mode : Lossy
Stream size : 320 MiB (14%)
Title : AVO [Chadov]
Language : Russian
Default : No
Forced : No
Audio #4
ID : 5
Format : AC-3
Format/Info : Audio Coding 3
Mode extension : CM (complete main)
Format settings, Endianness : Big
Codec ID : A_AC3
Duration : 1 h 39 min
Bit rate mode : Constant
Bit rate : 448 kb/s
Channel(s) : 6 channels
Channel positions : Front: L C R, Side: L R, LFE
Sampling rate : 48.0 kHz
Frame rate : 31.250 FPS (1536 spf)
Compression mode : Lossy
Stream size : 320 MiB (14%)
Language : English
Default : No
Forced : No
Text #1
ID : 6
Format : UTF-8
Codec ID : S_TEXT/UTF8
Codec ID/Info : UTF-8 Plain Text
Title : Forced
Language : Russian
Default : No
Forced : No
Text #2
ID : 7
Format : UTF-8
Codec ID : S_TEXT/UTF8
Codec ID/Info : UTF-8 Plain Text
Title : Full
Language : Russian
Default : No
Forced : No
Text #3
ID : 8
Format : UTF-8
Codec ID : S_TEXT/UTF8
Codec ID/Info : UTF-8 Plain Text
Title : Full
Language : English
Default : No
Forced : No
Text #4
ID : 9
Format : UTF-8
Codec ID : S_TEXT/UTF8
Codec ID/Info : UTF-8 Plain Text
Title : SDH
Language : English
Default : No
Forced : No
Menu
00:00:00.000 : en:00:00:00.000
00:05:38.296 : en:00:05:38.296
00:09:04.919 : en:00:09:04.919
00:15:26.759 : en:00:15:26.759
00:18:42.705 : en:00:18:42.705
00:21:43.636 : en:00:21:43.636
00:28:37.382 : en:00:28:37.382
00:34:42.622 : en:00:34:42.622
00:41:17.058 : en:00:41:17.058
00:47:55.623 : en:00:47:55.623
00:51:14.530 : en:00:51:14.530
00:56:58.457 : en:00:56:58.457
01:01:34.566 : en:01:01:34.566
01:05:22.168 : en:01:05:22.168
01:09:10.938 : en:01:09:10.938
01:16:13.194 : en:01:16:13.194
01:20:17.104 : en:01:20:17.104
01:25:41.928 : en:01:25:41.928
01:31:45.250 : en:01:31:45.250
01:33:57.632 : en:01:33:57.632

Релиз от:
Автор релиза:
Показать сообщения:    
Ответить на тему

Текущее время: 18-Янв 05:47

Часовой пояс: UTC ± 0



Вы не можете начинать темы
Вы не можете отвечать на сообщения
Вы не можете редактировать свои сообщения
Вы не можете удалять свои сообщения
Вы не можете голосовать в опросах
Вы не можете прикреплять файлы к сообщениям
Вы не можете скачивать файлы