FREELEECH СКАЧАННОЕ НЕ УЧИТЫВАЕТСЯ! 


Проводник (Илья Максимов) [2018, Ужасы, триллер, WEB-DL 1080p] | iTunes

Ответить на тему
 
Автор

Сообщение

Mercury ®

Пол: Мужской

Стаж: 6 месяцев 22 дня

Сообщений: 867

Репутация: 569

[+] [-]

Награды: 4 (Подробнее)

Boss (Количество: 1) Meloman (Количество: 1) Prestige (Количество: 1)

Вне форума

[Профиль] [ЛС]

Создавать темы 01-Янв-2019 05:41

[Цитировать]

Информация о фильме
Название: Проводник
Год выхода: 2018
Жанр: Ужасы, триллер
Страна: Россия
Перевод: не требуется
Продолжительность: 01:26:18
Режиссер: Илья Максимов
В ролях: Александра Бортич, Евгений Цыганов, Александр Робак, Вячеслав Разбегаев, Владимир Яглыч, Константин Мурзенко, Юрий Скулябин, Марта Тимофеева, Екатерина Рокотова, Василий Бочкарев и др.
О фильме: Главная героиня, девушка Катя, обладает мистическим даром: она видит призраков. Когда пропадает её сестра-близнец, девушка в одиночку бросается на поиски. В полиции настаивают, что сестры вообще не существует, что она — плод Катиного больного воображения. Однако в процессе поисков сестры Катя понимает, что в городе орудует серийный маньяк, и сестра — одна из его жертв. Еще есть надежда спасти ее, но в мрачном, полном тайн городе нельзя доверять никому, даже самой себе…

Файл
Качество: WEB-DL 1080p
Видео: MPEG-4 AVC, 1920x804, 4513 kbps, 25,000 fps
Звук: русский, AC3, 5.1 ch, 48 kHz, 384 kbps | iTunes
Субтитры: нет

MI

General
Уникальный идентификатор : 231031341112819084195316840205590047356 (0xADCF048E27A92D2FA0F701CF616DAA7C)
Полное имя : F:TorrentProvodnikWEBDL1080p.mkv
Формат : Matroska
Версия формата : Version 4 / Version 2
Размер файла : 2.95 GiB
Продолжительность : 1 h 26 min
Общий поток : 4 898 kb/s
Дата кодирования : UTC 2018-12-31 22:28:23
Программа кодирования : mkvmerge v9.5.0 ('Quiet Fire') 64bit
Библиотека кодирования : libebml v1.3.4 + libmatroska v1.4.5
Video
Идентификатор : 1
Формат : AVC
Формат/Информация : Advanced Video Codec
Профиль формата : High@L4
Настройки формата : CABAC / 5 Ref Frames
Параметр CABAC формата : Yes
Параметр RefFrames формата : 5 frames
Идентификатор кодека : V_MPEG4/ISO/AVC
Продолжительность : 1 h 26 min
Битрейт : 4 513 kb/s
Ширина : 1 920 pixels
Высота : 804 pixels
Соотношение сторон : 2.40:1
Режим частоты кадров : Constant
Частота кадров : 25.000 FPS
Цветовое пространство : YUV
Субдискретизация насыщенности : 4:2:0
Битовая глубина : 8 bits
Тип развёртки : Progressive
Бит/(Пиксели*Кадры) : 0.117
Размер потока : 2.72 GiB (92%)
Язык : English
Default : Yes
Forced : No
Цветовой диапазон : Limited
Основные цвета : BT.709
Характеристики трансфера : BT.709
Коэффициенты матрицы : BT.709
Audio
Идентификатор : 2
Формат : AC-3
Формат/Информация : Audio Coding 3
Идентификатор кодека : A_AC3
Продолжительность : 1 h 26 min
Вид битрейта : Constant
Битрейт : 384 kb/s
Каналы : 6 channels
Расположение каналов : Front: L C R, Side: L R, LFE
Частота : 48.0 kHz
Частота кадров : 31.250 FPS (1536 SPF)
Битовая глубина : 16 bits
Метод сжатия : Lossy
Размер потока : 237 MiB (8%)
Язык : Russian
Default : Yes
Forced : No
Menu
00:00:00.000 : en:Глава 1
00:05:18.760 : en:Глава 2
00:11:59.000 : en:Глава 3
00:18:06.520 : en:Глава 4
00:26:13.960 : en:Глава 5
00:33:08.400 : en:Глава 6
00:41:30.160 : en:Глава 7
00:47:55.720 : en:Глава 8
00:55:33.760 : en:Глава 9
01:01:29.280 : en:Глава 10
01:07:41.280 : en:Глава 11
01:15:00.000 : en:Глава 12
Показать сообщения:    
Ответить на тему

Текущее время: 18-Янв 05:45

Часовой пояс: UTC ± 0



Вы не можете начинать темы
Вы не можете отвечать на сообщения
Вы не можете редактировать свои сообщения
Вы не можете удалять свои сообщения
Вы не можете голосовать в опросах
Вы не можете прикреплять файлы к сообщениям
Вы не можете скачивать файлы