FREELEECH СКАЧАННОЕ НЕ УЧИТЫВАЕТСЯ! 


Когда папа Дед Мороз! [01-04 из 04] (Антон Азаров) [2017, мелодрама, WEB-DLRip] от GeneralFilm

Ответить на тему
 
Автор

Сообщение

Mercury ®

Пол: Мужской

Стаж: 6 месяцев 22 дня

Сообщений: 867

Репутация: 569

[+] [-]

Награды: 4 (Подробнее)

Boss (Количество: 1) Meloman (Количество: 1) Prestige (Количество: 1)

Вне форума

[Профиль] [ЛС]

Создавать темы 01-Янв-2019 20:28

[Цитировать]

Год выпуска: 2017
Жанр: мелодрама
Выпущено: Украина, «Star Media»
Режиссер: Антон Азаров
В ролях: Даниил Белых, Фатима Горбенко, Ева Шевченко-Головко, Екатерина Гулякова, Кирилл Жандаров, Алексей Нагрудный, Никита Алексеев, Юрий Щербак, Нина Набока, Галина Корнеева
О фильме: В канун Нового года Денис слёзно просит друга Юрия подменить его на работе — стать Дедом Морозом. Юрий соглашается, ведь друг гарантирует, что почти ничего не придется делать. Но в первый же рабочий день всё идет наперекосяк, и новоиспеченному Деду Морозу приходится выкручиваться. Неожиданно для всех, а особенно для себя самого, он справляется на отлично. Это и положило начало успешному тандему — Снегурка Вика и Дед Мороз Юрий. Вскоре жизнь коллег круто изменится, ведь помимо нелепых ситуаций на работе, им придётся пережить и личные драмы, которые их сильно сблизят. Да так, что вскоре они не смогут жить друг без друга. Правда, признаться, друг другу в своих чувствах всё время не хватает смелости. Но, говорят, что под Новый год мечты сбываются…

Качество: WEB-DLRip
Видео: XviD build 73, 720x400 (16:9), 25.000 fps, ~ 1550 Kbps (~ 0.217 bit/pixel)
Аудио: 48.0 kHz, AC3, 2/0 ch, 192 kbps
Продолжительность: 4 x ~ 00:45:00
Перевод: Не требуется
Cубтитры: нет

Скриншоты

MediaInfo

General
Complete name : D:RazdachiKogda.Papa.Ded.Moroz.2017.XviD.WEB-DLRip.GeneralFilmKogda.Papa.Ded.Moroz.e04.avi
Format : AVI
Format/Info : Audio Video Interleave
File size : 557 MiB
Duration : 44 min 13 s
Overall bit rate : 1 761 kb/s
Writing application : VirtualDubMod 1.5.10.3 | www.virtualdub-fr.org || (build 2550/release)
Writing library : VirtualDubMod build 2550/release
Video
ID : 0
Format : MPEG-4 Visual
Format profile : Advanced Simple@L5
Format settings, BVOP : 1
Format settings, QPel : No
Format settings, GMC : No warppoints
Format settings, Matrix : Custom
Codec ID : XVID
Codec ID/Hint : XviD
Duration : 44 min 13 s
Bit rate : 1 559 kb/s
Width : 720 pixels
Height : 400 pixels
Display aspect ratio : 16:9
Frame rate : 25.000 FPS
Color space : YUV
Chroma subsampling : 4:2:0
Bit depth : 8 bits
Scan type : Progressive
Compression mode : Lossy
Bits/(Pixel*Frame) : 0.217
Stream size : 493 MiB (89%)
Writing library : XviD 73
Audio
ID : 1
Format : AC-3
Format/Info : Audio Coding 3
Format settings, Endianness : Big
Codec ID : 2000
Duration : 44 min 13 s
Bit rate mode : Constant
Bit rate : 192 kb/s
Channel(s) : 2 channels
Channel positions : Front: L R
Sampling rate : 48.0 kHz
Frame rate : 31.250 FPS (1536 SPF)
Bit depth : 16 bits
Compression mode : Lossy
Stream size : 60.7 MiB (11%)
Alignment : Split accross interleaves
Interleave, duration : 40 ms (1.00 video frame)
Interleave, preload duratio : 500 ms
Service kind : Complete Main
Релиз от:
Показать сообщения:    
Ответить на тему

Текущее время: 18-Янв 05:46

Часовой пояс: UTC ± 0



Вы не можете начинать темы
Вы не можете отвечать на сообщения
Вы не можете редактировать свои сообщения
Вы не можете удалять свои сообщения
Вы не можете голосовать в опросах
Вы не можете прикреплять файлы к сообщениям
Вы не можете скачивать файлы