FREELEECH СКАЧАННОЕ НЕ УЧИТЫВАЕТСЯ! 


Ограбление: Код 211 / 211 (Йорк Шеклтон) [2018, Боевик, драма, история, BDRip-AVC] от OlLanDGroup | iTunes

Ответить на тему
 
Автор

Сообщение

Mercury ®

Пол: Мужской

Стаж: 6 месяцев 22 дня

Сообщений: 867

Репутация: 569

[+] [-]

Награды: 4 (Подробнее)

Boss (Количество: 1) Meloman (Количество: 1) Prestige (Количество: 1)

Вне форума

[Профиль] [ЛС]

Создавать темы 03-Янв-2019 02:15

[Цитировать]

Ограбление: Код 211 / 211
«Your life can change in an instant»-

Год выпуска: 2018
Страна: США
Производство: Millennium Films, 211 Productions, Nu Image Bulgaria
Жанр: Боевик, драма, история-Режиссёр: Йорк Шеклтон
В ролях: Николас Кейдж, Софи Скелтон, Майкл Рейни мл., Дуэйн Камерон, Уэстон Кейдж, Кори Хардрикт, Ори Феффер, Марк Баснайт, Аманда Серни, Майкл Беллисарио-Перевод: Дублированный | [iTunes]
Субтитры: Английские (SDH)
Реклама: Отсутствует
Описание: Сюжет картины закручивается вокруг полицейского Чандлера, у которого за плечами огромный опыт всевозможных расследований разной степени сложности. Главный герой прекрасно знает, что делает, и он отлично справляется с задачами по поимке опасных преступников. В один прекрасный день в полицейское отделение, где работает Чандлер поступает сообщение об ограблении банка. Звучит код 211, извещающий о том, что на финансовое учреждение был совершён вооружённый налёт. Полицейский выезжает на место событий и довольно скоро приходит к выводу, что теперь ему предстоит иметь дело с настоящими профессионалами своего дела. Сможет ли Чандлер арестовать бандитов и раскрыть самое сложное дело в своей практике?
-Качество: BDRip-AVC
Продолжительность: 01:27:05
Формат: MKV
Видео кодек: MPEG-4 AVC
Аудио кодек: AC3
Видео: 720x390 (1.85:1), 24,000 fps, x264 ~1 950 kbps avg, 0.290 bit/pixel
Аудио: 48 kHz, AC3 Dolby Digital, 3/2 (L,C,R,l,r) + LFE ch, ~384.00 kbps avg | RUS (iTunes)-Цифровой релиз:
Дата премьеры (мир): 30 мая 2018

Релиз от: Rip by:

MediaInfo

Общее
Уникальный идентификатор : 317183628828622018138940916614934768425 (0xEE9F5848F1CBBA9534E7DF65859B2B29)
Полное имя : F:OlLanDGroup211.2018.BDRip(AVC).OlLanDGroup.mkv
Формат : Matroska
Версия формата : Version 4 / Version 2
Размер файла : 1,42 Гбайт
Продолжительность : 1 ч. 27 м.
Общий поток : 2333 Кбит/сек
Название фильма : 211.2018.BDRip(AVC).OlLanDGroup #TorpedoUK#
Дата кодирования : UTC 2019-01-03 01:18:06
Программа кодирования : mkvmerge v29.0.0 ('Like It Or Not') 64-bit
Библиотека кодирования : libebml v1.3.6 + libmatroska v1.4.9
Видео
Идентификатор : 1
Формат : AVC
Формат/Информация : Advanced Video Codec
Профиль формата : High@L4.1
Параметр CABAC формата : Да
Параметр ReFrames формата : 10 кадров
Идентификатор кодека : V_MPEG4/ISO/AVC
Продолжительность : 1 ч. 27 м.
Битрейт : 1950 Кбит/сек
Ширина : 720 пикселей
Высота : 390 пикселей
Соотношение сторон : 1,85:1
Режим частоты кадров : Постоянный
Частота кадров : 23,976 (24000/1001) кадра/сек
Цветовое пространство : YUV
Субдискретизация насыщенности : 4:2:0
Битовая глубина : 8 бит
Тип развёртки : Прогрессивная
Бит/(Пиксели*Кадры) : 0.290
Размер потока : 1,18 Гбайт (83%)
Библиотека кодирования : x264 core 146 r2538 121396c
Настройки программы : cabac=1 / ref=10 / deblock=1:-3:-3 / analyse=0x3:0x113 / me=umh / subme=11 / psy=1 / psy_rd=0.99:0.04 / mixed_ref=1 / me_range=48 / chroma_me=1 / trellis=2 / 8x8dct=1 / cqm=0 / deadzone=21,11 / fast_pskip=1 / chroma_qp_offset=-3 / threads=6 / lookahead_threads=1 / sliced_threads=0 / nr=0 / decimate=1 / interlaced=0 / bluray_compat=0 / constrained_intra=0 / bframes=10 / b_pyramid=2 / b_adapt=2 / b_bias=0 / direct=3 / weightb=1 / open_gop=0 / weightp=2 / keyint=240 / keyint_min=23 / scenecut=40 / intra_refresh=0 / rc_lookahead=40 / rc=2pass / mbtree=1 / bitrate=1950 / ratetol=1.0 / qcomp=0.60 / qpmin=0 / qpmax=69 / qpstep=4 / cplxblur=20.0 / qblur=0.5 / vbv_maxrate=50000 / vbv_bufsize=62500 / nal_hrd=none / filler=0 / ip_ratio=1.40 / aq=1:1.00
Default : Да
Forced : Нет
Аудио
Идентификатор : 2
Формат : AC-3
Формат/Информация : Audio Coding 3
Расширение режима : CM (complete main)
Параметр Endianness формата : Big
Идентификатор кодека : A_AC3
Продолжительность : 1 ч. 27 м.
Вид битрейта : Постоянный
Битрейт : 384 Кбит/сек
Каналы : 6 каналов
Расположение каналов : Front: L C R, Side: L R, LFE
Частота : 48,0 КГц
Частота кадров : 31,250 кадров/сек (1536 spf)
Битовая глубина : 16 бит
Метод сжатия : С потерями
Размер потока : 239 Мбайт (16%)
Заголовок : DUB [iTunes]
Язык : Russian
Default : Да
Forced : Нет
Текст
Идентификатор : 3
Формат : UTF-8
Идентификатор кодека : S_TEXT/UTF8
Идентификатор кодека/Информация : UTF-8 Plain Text
Продолжительность : 1 ч. 21 м.
Битрейт : 57 бит/сек
Count of elements : 1003
Размер потока : 34,4 Кбайт (0%)
Заголовок : SDH
Язык : English
Default : Нет
Forced : Нет
Меню
00:00:00.000 : en:00:00:00.000
00:05:50.725 : en:00:05:50.725
00:10:14.864 : en:00:10:14.864
00:16:36.370 : en:00:16:36.370
00:22:31.308 : en:00:22:31.308
00:27:17.219 : en:00:27:17.219
00:32:44.713 : en:00:32:44.713
00:38:48.201 : en:00:38:48.201
00:44:38.926 : en:00:44:38.926
00:49:44.607 : en:00:49:44.607
00:54:29.475 : en:00:54:29.475
01:00:32.170 : en:01:00:32.170
01:05:32.971 : en:01:05:32.971
01:11:29.327 : en:01:11:29.327
01:16:34.006 : en:01:16:34.006
01:22:27.192 : en:01:22:27.192

Скриншоты



Показать сообщения:    
Ответить на тему

Текущее время: 18-Янв 05:42

Часовой пояс: UTC ± 0



Вы не можете начинать темы
Вы не можете отвечать на сообщения
Вы не можете редактировать свои сообщения
Вы не можете удалять свои сообщения
Вы не можете голосовать в опросах
Вы не можете прикреплять файлы к сообщениям
Вы не можете скачивать файлы