FREELEECH СКАЧАННОЕ НЕ УЧИТЫВАЕТСЯ! 


Простая просьба / A Simple Favor (Пол Фиг) [2018, триллер, драма, криминал, детектив, BDRip-HEVC 1080p] от KORSAR | iTunes

Ответить на тему
 
Автор

Сообщение

Mercury ®

Пол: Мужской

Стаж: 6 месяцев 22 дня

Сообщений: 867

Репутация: 569

[+] [-]

Награды: 4 (Подробнее)

Boss (Количество: 1) Meloman (Количество: 1) Prestige (Количество: 1)

Вне форума

[Профиль] [ЛС]

Создавать темы 03-Янв-2019 19:22

[Цитировать]

Информация о фильме
Название: Простая просьба
Оригинальное название: A Simple Favor
Год выхода: 2018
Жанр: триллер, драма, криминал, детектив
Режиссер: Пол Фиг
В ролях: Анна Кендрик, Блэйк Лайвли, Генри Голдинг, Эндрю Рэннеллс, Иэн Хо, Джошуа Сатине, Гленда Браганза, Келли МакКормак, Апарна Нанчерла, Джия Мавджи
О фильме:
Стефани, мама-блогер из маленького городка, оказывает подруге простую услугу, после чего та бесследно исчезает… Вместе с Шоном, мужем пропавшей, Стефани должна докопаться до истины. Отныне их жизни полны тайн и предательств, любви и верности, убийств и мести.

Страна: США, Канада
Студия: BRON Studios, Feigco Entertainment
Продолжительность: 01:56:48
Перевод: Профессиональный дублированный (iTunes)
Файл
Кодек: HEVC x265
Качество: BDRip-HEVC 1080p
Видео: 1920x1036 (1.85:1), 6523 Кбит/сек, 0.137 бит/(Пиксели*Кадры), 23.976 (24000/1001) кадр/сек, HEVC (Main10@L.4.1@High) 8 бит
Звук:
Аудио1: Русская, AC3 384 Кбит/сек, 6 канала(ов),16bit 48,0 КГц Дублированный (iTunes)
Аудио2: English, AC3 640 Кбит/сек, 6 канала(ов),16bit 48,0 КГц
Субтитры: Русские, English (full, SDH)
Навигация по главам: Есть

Mediainfo

x265 [info]: frame I: 1591, Avg QP:16.92 kb/s: 28523.70
x265 [info]: frame P: 30789, Avg QP:18.60 kb/s: 13630.51
x265 [info]: frame B: 135657, Avg QP:20.70 kb/s: 4650.83
x265 [info]: consecutive B-frames: 7.0% 4.9% 4.6% 33.6% 9.2% 12.7% 7.5% 14.4% 2.6% 1.4% 0.7% 0.2% 0.3%
General
Unique ID : 2455753599828265197714960677058659471 (0x1D8F6001FC93F48CB884109B808448F)
Complete name : F:HEVC1A Simple Favor (2018) BDRip-HEVC 1080p - KORSAR.mkv
Format : Matroska
Format version : Version 4 / Version 2
File size : 6.16 GiB
Duration : 1 h 56 min
Overall bit rate : 7 550 kb/s
Movie name : A Simple Favor (2018)_rip_by_Cthulhu
Encoded date : UTC 2019-01-01 10:57:10
Writing application : mkvmerge v28.2.0 ('The Awakening') 64-bit
Writing library : libebml v1.3.6 + libmatroska v1.4.9
Cover : Yes
Attachments : cover.jpg
Video
ID : 1
Format : HEVC
Format/Info : High Efficiency Video Coding
Format profile : Main@L4.1@High
Codec ID : V_MPEGH/ISO/HEVC
Duration : 1 h 56 min
Bit rate : 6 523 kb/s
Width : 1 920 pixels
Height : 1 036 pixels
Display aspect ratio : 1.85:1
Frame rate mode : Constant
Frame rate : 23.976 (24000/1001) FPS
Color space : YUV
Chroma subsampling : 4:2:0
Bit depth : 8 bits
Bits/(Pixel*Frame) : 0.137
Stream size : 5.32 GiB (86%)
Writing library : x265 2.9+2-7e978ed93d60:[Windows][MSVC 1915][64 bit] 8bit+10bit+12bit
Encoding settings : cpuid=1176575 / frame-threads=4 / numa-pools=16 / wpp / no-pmode / no-pme / no-psnr / no-ssim / log-level=2 / input-csp=1 / input-res=1920x1036 / interlace=0 / total-frames=168037 / level-idc=41 / high-tier=1 / uhd-bd=0 / ref=4 / no-allow-non-conformance / no-repeat-headers / annexb / no-aud / no-hrd / info / hash=0 / no-temporal-layers / open-gop / min-keyint=23 / keyint=240 / gop-lookahead=0 / bframes=12 / b-adapt=2 / b-pyramid / bframe-bias=0 / rc-lookahead=60 / lookahead-slices=4 / scenecut=40 / radl=0 / no-intra-refresh / ctu=32 / min-cu-size=8 / rect / amp / max-tu-size=32 / tu-inter-depth=4 / tu-intra-depth=4 / limit-tu=1 / rdoq-level=1 / dynamic-rd=0.00 / no-ssim-rd / signhide / no-tskip / nr-intra=0 / nr-inter=0 / no-constrained-intra / no-strong-intra-smoothing / max-merge=5 / limit-refs=2 / limit-modes / me=3 / subme=7 / merange=57 / temporal-mvp / weightp / weightb / no-analyze-src-pics / deblock=-3:-3 / no-sao / no-sao-non-deblock / rd=6 / no-early-skip / rskip / no-fast-intra / no-tskip-fast / no-cu-lossless / b-intra / no-splitrd-skip / rdpenalty=0 / psy-rd=2.00 / psy-rdoq=1.00 / no-rd-refine / no-lossless / cbqpoffs=0 / crqpoffs=0 / rc=crf / crf=19.5 / qcomp=0.75 / qpstep=4 / stats-write=0 / stats-read=0 / vbv-maxrate=50000 / vbv-bufsize=50000 / vbv-init=0.9 / crf-max=0.0 / crf-min=0.0 / ipratio=1.40 / pbratio=1.30 / aq-mode=2 / aq-strength=0.70 / no-cutree / zone-count=0 / no-strict-cbr / qg-size=32 / no-rc-grain / qpmax=69 / qpmin=0 / no-const-vbv / sar=1 / overscan=0 / videoformat=5 / range=0 / colorprim=1 / transfer=1 / colormatrix=1 / chromaloc=0 / display-window=0 / max-cll=0,0 / min-luma=0 / max-luma=255 / log2-max-poc-lsb=8 / vui-timing-info / vui-hrd-info / slices=1 / no-opt-qp-pps / no-opt-ref-list-length-pps / no-multi-pass-opt-rps / scenecut-bias=0.05 / no-opt-cu-delta-qp / aq-motion / no-hdr / no-hdr-opt / no-dhdr10-opt / no-idr-recovery-sei / analysis-reuse-level=5 / scale-factor=0 / refine-intra=0 / refine-inter=0 / refine-mv=0 / no-limit-sao / ctu-info=0 / no-lowpass-dct / refine-mv-type=0 / copy-pic=1 / max-ausize-factor=1.0 / no-dynamic-refine / no-single-sei
Language : English
Default : Yes
Forced : No
Color range : Limited
Color primaries : BT.709
Transfer characteristics : BT.709
Matrix coefficients : BT.709
Audio #1
ID : 2
Format : AC-3
Format/Info : Audio Coding 3
Mode extension : CM (complete main)
Format settings, Endianness : Big
Codec ID : A_AC3
Duration : 1 h 56 min
Bit rate mode : Constant
Bit rate : 384 kb/s
Channel(s) : 6 channels
Channel positions : Front: L C R, Side: L R, LFE
Sampling rate : 48.0 kHz
Frame rate : 31.250 FPS (1536 spf)
Compression mode : Lossy
Stream size : 321 MiB (5%)
Title : DUB (iTunes)
Language : Russian
Default : Yes
Forced : No
Audio #2
ID : 3
Format : AC-3
Format/Info : Audio Coding 3
Mode extension : CM (complete main)
Format settings, Endianness : Big
Codec ID : A_AC3
Duration : 1 h 56 min
Bit rate mode : Constant
Bit rate : 640 kb/s
Channel(s) : 6 channels
Channel positions : Front: L C R, Side: L R, LFE
Sampling rate : 48.0 kHz
Frame rate : 31.250 FPS (1536 spf)
Compression mode : Lossy
Stream size : 535 MiB (8%)
Language : English
Default : No
Forced : No
Text #1
ID : 4
Format : UTF-8
Codec ID : S_TEXT/UTF8
Codec ID/Info : UTF-8 Plain Text
Duration : 1 h 55 min
Bit rate : 117 b/s
Count of elements : 2221
Stream size : 99.2 KiB (0%)
Title : Full
Language : Russian
Default : No
Forced : No
Text #2
ID : 5
Format : UTF-8
Codec ID : S_TEXT/UTF8
Codec ID/Info : UTF-8 Plain Text
Duration : 1 h 50 min
Bit rate : 91 b/s
Count of elements : 2278
Stream size : 73.9 KiB (0%)
Title : Full
Language : English
Default : No
Forced : No
Text #3
ID : 6
Format : UTF-8
Codec ID : S_TEXT/UTF8
Codec ID/Info : UTF-8 Plain Text
Duration : 1 h 51 min
Bit rate : 97 b/s
Count of elements : 2451
Stream size : 80.3 KiB (0%)
Title : Full SDH
Language : English
Default : No
Forced : No
Menu
00:00:00.000 : en:00:00:00.000
00:06:33.977 : en:00:06:33.977
00:17:03.606 : en:00:17:03.606
00:26:24.166 : en:00:26:24.166
00:36:33.942 : en:00:36:33.942
00:46:30.329 : en:00:46:30.329
00:55:31.370 : en:00:55:31.370
01:08:43.661 : en:01:08:43.661
01:19:10.788 : en:01:19:10.788
01:27:40.589 : en:01:27:40.589
01:38:01.751 : en:01:38:01.751
01:50:20.572 : en:01:50:20.572

Скриншоты


Релиз от: Cthulhu
Показать сообщения:    
Ответить на тему

Текущее время: 18-Янв 06:05

Часовой пояс: UTC ± 0



Вы не можете начинать темы
Вы не можете отвечать на сообщения
Вы не можете редактировать свои сообщения
Вы не можете удалять свои сообщения
Вы не можете голосовать в опросах
Вы не можете прикреплять файлы к сообщениям
Вы не можете скачивать файлы