FREELEECH СКАЧАННОЕ НЕ УЧИТЫВАЕТСЯ! 


Ее секрет [01-04 из 04] (Карен Захаров) [2018, детектив, WEB-DLRip] от GeneralFilm

Ответить на тему
 
Автор

Сообщение

Mercury ®

Пол: Мужской

Стаж: 6 месяцев 22 дня

Сообщений: 867

Репутация: 569

[+] [-]

Награды: 4 (Подробнее)

Boss (Количество: 1) Meloman (Количество: 1) Prestige (Количество: 1)

Вне форума

[Профиль] [ЛС]

Создавать темы 04-Янв-2019 06:52

[Цитировать]

Информация о фильме
Оригинальное название: Ее секрет
Год выпуска: 2018
Жанр: детектив
Выпущено: Россия, «ХитФильм»
Режиссер: Карен Захаров
В ролях: Филипп Бледный, Анастасия Мытражик, Александр Наумов, Ирина Чериченко, Александра Богданова, Ольга Науменко, Виталий Альшанский
О фильме: Игорь - молодой перспективный юрист, делающий первые шаги по завоеванию Москвы. И удача на его стороне - его берут на работу в крупную девелоперскую компанию. Впереди блестящая карьера и счастливая жизнь с красавицей Жанной. Их роман стремительно развивается, когда Игорь вдруг понимает, что дочь главы компании по уши влюблена в него. Маша - девушка невзрачная, словно не от мира сего, полная противоположность яркой и темпераментной Жанны. Но стоит Игорю только ответить взаимностью единственной дочери олигарха, как все, о чем он мечтал, сбудется. Однако Жанну он любит по-настоящему и уже собирается сделать ей предложение. Несколько месяцев Игорь ведет мучительную двойную жизнь, прежде чем окончательно делает выбор в пользу богатой наследницы. Однако он не догадывается, что стал пешкой в чужой игре. Очень скоро жизнь преуспевающего молодого человека превратится в настоящий ад, и ему снова придется делать выбор...

Качество: WEB-DLRip
Видео: XviD build 73, 720x400 (16:9), 25.000 fps, ~ 1540 Kbps (~ 0.214 bit/pixel)
Аудио: 48.0 kHz, AC3, 2/0 ch, 192 kbps
Продолжительность: 4 x ~ 00:45:00
Перевод: Не требуется
Cубтитры: нет

Скриншоты

MediaInfo

General
Complete name : D:RazdachiEe.Sekret.2018.WEB-DLRip.GeneralFilmEe.Sekret.e01.avi
Format : AVI
Format/Info : Audio Video Interleave
File size : 557 MiB
Duration : 44 min 39 s
Overall bit rate : 1 744 kb/s
Writing application : VirtualDubMod 1.5.10.3 | www.virtualdub-fr.org || (build 2550/release)
Writing library : VirtualDubMod build 2550/release
Video
ID : 0
Format : MPEG-4 Visual
Format profile : Advanced Simple@L5
Format settings, BVOP : 1
Format settings, QPel : No
Format settings, GMC : No warppoints
Format settings, Matrix : Custom
Codec ID : XVID
Codec ID/Hint : XviD
Duration : 44 min 39 s
Bit rate : 1 542 kb/s
Width : 720 pixels
Height : 400 pixels
Display aspect ratio : 16:9
Frame rate : 25.000 FPS
Color space : YUV
Chroma subsampling : 4:2:0
Bit depth : 8 bits
Scan type : Progressive
Compression mode : Lossy
Bits/(Pixel*Frame) : 0.214
Stream size : 493 MiB (88%)
Writing library : XviD 73
Audio
ID : 1
Format : AC-3
Format/Info : Audio Coding 3
Format settings, Endianness : Big
Codec ID : 2000
Duration : 44 min 39 s
Bit rate mode : Constant
Bit rate : 192 kb/s
Channel(s) : 2 channels
Channel positions : Front: L R
Sampling rate : 48.0 kHz
Frame rate : 31.250 FPS (1536 SPF)
Bit depth : 16 bits
Compression mode : Lossy
Stream size : 61.3 MiB (11%)
Alignment : Split accross interleaves
Interleave, duration : 40 ms (1.00 video frame)
Interleave, preload duratio : 500 ms
Service kind : Complete Main
Релиз от:
Показать сообщения:    
Ответить на тему

Текущее время: 18-Янв 05:47

Часовой пояс: UTC ± 0



Вы не можете начинать темы
Вы не можете отвечать на сообщения
Вы не можете редактировать свои сообщения
Вы не можете удалять свои сообщения
Вы не можете голосовать в опросах
Вы не можете прикреплять файлы к сообщениям
Вы не можете скачивать файлы