FREELEECH СКАЧАННОЕ НЕ УЧИТЫВАЕТСЯ! 


Уединение / Воссоединение / Vuslat / Серии: 1 (??) (Мурат Онбул / Murat Onbul) [2019, Турция, Мелодрама, WEBRip (720p)] VO Kotova

Ответить на тему
 
Автор

Сообщение

Mercury ®

Пол: Мужской

Стаж: 6 месяцев 22 дня

Сообщений: 867

Репутация: 569

[+] [-]

Награды: 4 (Подробнее)

Boss (Количество: 1) Meloman (Количество: 1) Prestige (Количество: 1)

Вне форума

[Профиль] [ЛС]

Создавать темы 10-Янв-2019 20:27

[Цитировать]

Уединение / Воссоединение / Vuslat
Год выпуска: 2019
Производство: A23 Medya
Жанр: Мелодрама
Продолжительность: ~ 2:09:00 каждая серия
Перевод: любительский одноголосый закадровый (Котова)
Субтитры: отсутствуют
Режиссёр: Мурат Онбул / Murat Onbul
В ролях: Кадир Догулу / Kadir Doğulu – Азиз Коркмазер
Деврим Озкан / Devrim Özkan – Фериде
Умит Кантарджилар / Ümit Kantarcılar - Керем
Мехмет Озгюр / Mehmet Özgür - Салих Колубер
Баран Болюкбаши / Baran Bölükbaşı – Фырат
Озкан Варайлы / Özcan Varaylı – Шакал Неджми
Шейла Халис / Şeyla Halis – Севим Дильбаз
Гёзде Кайя / Gözde Kaya - Султан Коркмазер
Гамзе Сюнер Атай / Gamze Süner Atay - Хасибе
Эрдем Акакче / Erdem Akakçe
Осман Алкаш / Osman Alkaş
Сеннур Ногялар / Sennur Nogaylar
Джанан Мутлуер / Canan Mutluer
Мурат Карасу / Murat Karasu
Описание: Таинственный сон, часы, появившиеся из прошлого, и одно темное событие привязывает Азиза и Фериде друг к другу.
Салих показывает всему району одну древнюю мудрую игру. Отец Салих, как все его называют, находит старые вещи и возвращает их владельцам. Таким образом, начинают приоткрываться и старые тайны, хранившиеся на протяжении многих лет…
Качество: WEBRip (720p)
Формат: MP4
Видео кодек: H.264
Аудио кодек: AAC
Видео: MPEG4 Video (H264) 1280x720 25fps 1441kbps
Аудио: AAC 44100Hz stereo 96kbps
Реклама:
отсутствует

MI

General
Complete name : J:\Vuslat.2018.L1.WEBRip720p\Vuslat.s01.e01.2018.L1.WEBRip720p.mp4
Format : MPEG-4
Format profile : Base Media
Codec ID : isom (isom/avc1)
File size : 1.39 GiB
Duration : 2 h 8 min
Overall bit rate mode : Variable
Overall bit rate : 1 541 kb/s
Encoded date : UTC 2019-01-10 10:14:13
Tagged date : UTC 2019-01-10 10:14:13
Writing application : My MP4Box GUI 0.6.0.6 <http://my-mp4box-gui.zymichost.com>
Video
ID : 1
Format : AVC
Format/Info : Advanced Video Codec
Format profile : Main@L3.1
Format settings : CABAC / 3 Ref Frames
Format settings, CABAC : Yes
Format settings, ReFrames : 3 frames
Codec ID : avc1
Codec ID/Info : Advanced Video Coding
Duration : 2 h 8 min
Bit rate : 1 442 kb/s
Maximum bit rate : 5 546 kb/s
Width : 1 280 pixels
Height : 720 pixels
Display aspect ratio : 16:9
Frame rate mode : Constant
Frame rate : 25.000 FPS
Color space : YUV
Chroma subsampling : 4:2:0
Bit depth : 8 bits
Scan type : Progressive
Bits/(Pixel*Frame) : 0.063
Stream size : 1.30 GiB (94%)
Title : 1_track1.h264
Encoded date : UTC 2019-01-10 10:14:14
Tagged date : UTC 2019-01-10 10:16:34
Color range : Limited
Color primaries : BT.709
Transfer characteristics : BT.709
Matrix coefficients : BT.709
Audio
ID : 2
Format : AAC
Format/Info : Advanced Audio Codec
Format profile : LC
Codec ID : mp4a-40-2
Duration : 2 h 8 min
Bit rate mode : Variable
Bit rate : 96.0 kb/s
Maximum bit rate : 104 kb/s
Channel(s) : 2 channels
Channel positions : Front: L R
Sampling rate : 44.1 kHz
Frame rate : 43.066 FPS (1024 SPF)
Compression mode : Lossy
Stream size : 88.6 MiB (6%)
Title : 1ð_track2.aac
Encoded date : UTC 2019-01-10 10:16:07
Tagged date : UTC 2019-01-10 10:16:34

Скриншоты



Релиз подготовлен RG Serials

Показать сообщения:    
Ответить на тему

Текущее время: 18-Янв 05:59

Часовой пояс: UTC ± 0



Вы не можете начинать темы
Вы не можете отвечать на сообщения
Вы не можете редактировать свои сообщения
Вы не можете удалять свои сообщения
Вы не можете голосовать в опросах
Вы не можете прикреплять файлы к сообщениям
Вы не можете скачивать файлы