FREELEECH СКАЧАННОЕ НЕ УЧИТЫВАЕТСЯ! 


Перерождение / The Passage / Сезон: 1 / Серии: 1-5 из 10 (Джейсон Энслер, Эллисон Лидди, Маркос Сига) [2019, Драма, Приключенческий, Мистика, Боевик, WEB-DLRip] (MVO : LostFilm)

Ответить на тему
 
Автор

Сообщение

Mercury ®

Пол: Мужской

Стаж: 7 месяцев 23 дня

Сообщений: 964

Репутация: 569

[+] [-]

Награды: 4 (Подробнее)

Boss (Количество: 1) Meloman (Количество: 1) Prestige (Количество: 1)

Вне форума

[Профиль] [ЛС]

Создавать темы 19-Янв-2019 07:28

[Цитировать]

Перерождение / The Passage - -Год выпуска: 2019
Страна: США
Жанр: Драма, Приключенческий, Мистика, Боевик
Тип: По книге, Вампиры, Эпидемия, Постапокалипсис
Продолжительность: ~ 00:44:00
Перевод: Любительский (многоголосый закадровый)
Доп. инфо о переводе: LostFilm--Режиссёр: Джейсон Энслер, Эллисон Лидди, Маркос Сига--В ролях: Брианна Хоуи, МакКинли Белчер III, Брианна Браун, Кэролайн Чикези, Эммануэль Шрики, Генри Иэн Кьюсик, Марк-Пол Госселаар, Джейми МакШейн, Винсент Пьяцца, Саня Сидни--Описание: В центре сюжета — секретное военное медицинское учреждение под названием «Проект Ной», где ученые экспериментируют с опасным вирусом, который может излечить все болезни, но также несет в себе потенциал уничтожить человеческую расу. Когда медики не смогли получить желаемых результатов ни с одним из дюжины заключенных, приговоренных к смертной казни, они решают, что ключом к разгадке может быть ребенок. Поэтому руководство поручает федеральному агенту Брэду Волгасту (Марк-Пол Госселаар) привести в заведение юную девочку, Эми Беллафонте (Саня Сидни). Однако Волгаст не решается отдать ее для жутких экспериментов и стремится защитить любой ценой. На пути у Брэда и Эми встают ведущая ученая проекта, майор Николь Сайкс (Кэролайн Чикези), и закаленный бывший агент ЦРУ Кларк Ричардс (Винсент Пьяцца), которого обучал сам Волгаст. Помимо военных герои также сталкиваются лицом к лицу с новой опасной расой кровопийц, заключенных в стенах «Проекта Ной». В то время, как ученые загадочного заведения начинают тестировать лекарство, которое может спасти человечество, эти жуткие инфицированные существа наращивают собственные силы, с каждым днем становясь на шаг ближе к выходу в мир. Если они сбегут, человечество окажется на грани апокалипсиса..--Рейтинг IMDb: 7.1--Качество видео: WEB-DLRip
Формат: AVI--Видео: XviD, 720x400 (16:9), 1579 kbps (0.229 b/px), 23.98 fps
Аудио: MPEG-1 Audio layer 3, 193 kbps (VBR), 48.0 KHz, 2 ch

Доп. информация

«Перерождение» — это научно-фантастический сериал, основанный на трилогии Джастина Кронина о вампирском апокалипсисе. Создательницей проекта выступила Лиз Хелденс, работавшая над «Орвиллом» и «Огнями ночной пятницы», а Джейсон Энслер, заведовавший производством мистического триллера «Культ», поставил несколько эпизодов шоу. Признанный мастер сай-фая Ридли Скотт значится продюсером, что является своеобразным знаком качества любого проекта. «Перерождение» должно прийтись по вкусу как любителям хорроров, так и поклонникам боевиков, поскольку сериал наполнен кровавым динамичным экшеном. При этом кровопийцы не выглядят сексуальными красавчиками, как в «Дневниках вампира», а скорее жуткими инфицированными больными, чья отвратительная внешность отлично подчеркнута характерным гримом. Шоу канала Fox не может позволить себе такое же обилие крови, как «Ходячие мертвецы», но недостаток расчлененки с лихвой компенсируется углублением в психологические страхи — массовые смерти, серые области медицинской этики, вторжение в частную жизнь и необходимость оставить близких в прошлом. А у «Остаться в живых» проект перенял повествование с помощью флэшбэков, конспирологические загадки, а также Генри Йена Кьюсика, исполнявшего роль Десмонда.

MediaInfo

General
Complete name : E:\The.Passage.S01E01.rus.LostFilm.TV.avi
Format : AVI
Format/Info : Audio Video Interleave
File size : 565 MiB
Duration : 44mn 25s
Overall bit rate mode : Variable
Overall bit rate : 1 779 Kbps
Writing application : Nandub v1.0rc2
Writing library : Nandub build 1853/release
Video
ID : 0
Format : MPEG-4 Visual
Format profile : Advanced Simple@L5
Format settings, BVOP : No
Format settings, QPel : No
Format settings, GMC : No warppoints
Format settings, Matrix : Default (MPEG)
Codec ID : XVID
Codec ID/Hint : XviD
Duration : 44mn 25s
Bit rate : 1 579 Kbps
Width : 720 pixels
Height : 400 pixels
Display aspect ratio : 16:9
Frame rate : 23.976 fps
Color space : YUV
Chroma subsampling : 4:2:0
Bit depth : 8 bits
Scan type : Progressive
Compression mode : Lossy
Bits/(Pixel*Frame) : 0.229
Stream size : 502 MiB (89%)
Writing library : XviD 1.2.1 (UTC 2008-12-04)
Audio
ID : 1
Format : MPEG Audio
Format version : Version 1
Format profile : Layer 3
Mode : Joint stereo
Codec ID : 55
Codec ID/Hint : MP3
Duration : 44mn 25s
Bit rate mode : Variable
Bit rate : 192 Kbps
Channel(s) : 2 channels
Sampling rate : 48.0 KHz
Compression mode : Lossy
Stream size : 59.4 MiB (11%)
Alignment : Aligned on interleaves
Interleave, duration : 24 ms (0.58 video frame)
Interleave, preload duration : 485 ms
Writing library : LAME3.97b
Encoding settings : -m j -V 4 -q 3 -lowpass 18.6 --abr 192

Релиз подготовлен RG Serials

Показать сообщения:    
Ответить на тему

Текущее время: 18-Фев 19:03

Часовой пояс: UTC ± 0



Вы не можете начинать темы
Вы не можете отвечать на сообщения
Вы не можете редактировать свои сообщения
Вы не можете удалять свои сообщения
Вы не можете голосовать в опросах
Вы не можете прикреплять файлы к сообщениям
Вы не можете скачивать файлы