FREELEECH СКАЧАННОЕ НЕ УЧИТЫВАЕТСЯ! 


Каратель / The Punisher / Сезон: 2 / Серии: 1-10 из 13 (Энди Годдард, Марк Йобст, Кари Скогланд) [2019, Боевик, Драма, Комиксы, Криминал, Триллер, Фантастика, WEBRip] (MVO : LostFilm)

Ответить на тему
 
Автор

Сообщение

Mercury ®

Пол: Мужской

Стаж: 7 месяцев 23 дня

Сообщений: 964

Репутация: 569

[+] [-]

Награды: 4 (Подробнее)

Boss (Количество: 1) Meloman (Количество: 1) Prestige (Количество: 1)

Вне форума

[Профиль] [ЛС]

Создавать темы 21-Янв-2019 07:30

[Цитировать]

Каратель / The Punisher- -Год выпуска: 2019
Страна: США
Жанр: Боевик, Драма, Комиксы, Криминал, Триллер, Фантастика
Тип: По комиксам Marvel
Продолжительность: 1x ~00:52:00
Перевод: Профессиональный (многоголосый закадровый)
Доп. инфо о переводе: LostFilm--Режиссёр: Энди Годдард , Марк Йобст , Кари Скогланд--В ролях: Бен Барнс, Джон Бернтал, Джейсон Р. Мур, Эбон Мосс-Бакрак, Майкл Натансон, Джейми Рэй Ньюман, Эмбер Роуз Рева, Пол Шульц, Даниэль Уэббер, Дебора Энн Уолл, Коби Фрумер (Zach Lieberman), Рипли Собо (Leo Lieberman)--Описание: Некогда счастливый муж и отец двоих детей Фрэнк Касл (Джон Бернтал) в одночасье потерял все, когда его семью убили в результате тайной спецоперации ЦРУ. Одержимый жаждой мести, он облачился в черное, взял себе псевдоним Каратель и отправился на поиски виновных. С каждым разом Касл расправлялся со своими врагами все более и более изощренными способами, а когда миссия была закончена, он сжег свой костюм и стал жить обычной жизнью. Теперь под вымышленным именем Фрэнк работает на стройке, целыми днями стуча огромной кувалдой по бетонным стенам и стирая руки в кровь. Несмотря на то, что он отомстил убийцам своей семьи, призраки прошлого и воспоминания о счастливой жизни никуда не делись. Фрэнк продолжает наказывать, но уже самого себя. Он не может двигаться дальше, не хочет заводить друзей и в принципе предпочитает держаться от людей в стороне. Но когда новенький парень со стройки, Донни (Лукка Де Оливейра), ввязывается в криминал и его жизни начинает угрожать опасность, Фрэнк Касл приходит ему на помощь. Бескорыстный поступок не остается незамеченным, и вскоре на след Карателя выходят как друзья, так и враги. В их числе оказываются сотрудники Министерства внутренней безопасности Дина Мадани (Эмбер Роуз Рева) и Сэм Стайн (Майкл Натансон), расследующие дело об участии американских солдат в героиновом трафике в Афганистане. Какое отношение Касл имеет к произошедшему в Кандагаре? Кто на самом деле стоит за убийством его семьи? И как эти события могут быть связаны? Судя по всему, Каратель еще не завершил свою миссию, и вскоре безжалостному борцу за справедливость придется вернуться к грязной работе…"--Качество видео: WEBRip
Формат: AVI-Видео: XviD, 720x400 (16:9), 1125 kbps (0.163 b/px), 23.98 fps
Аудио: MPEG-1 Audio layer 3, 193 kbps (VBR), 48.0 KHz, 2 ch

Доп. информация

«Каратель» — это супергеройский криминальный боевик, шестой по счету совместный проект телевизионного подразделения студии Marvel и онлайн-сервиса Netflix. В его основу положена одноименная серия комиксов о бывшем военном по имени Фрэнк Касл, чьи жена и дети были жестоко убиты. Решив отомстить за смерть семьи, герой объявляет войну всему преступному миру и начинает самолично вершить правосудие. Впервые на телеэкранах Каратель в исполнении Джона Бернтала, знакомого поклонникам сериалов по роли Шейна из зомби-драмы «Ходячие мертвецы», появился во втором сезоне «Сорвиголовы». Персонаж так полюбился зрителям, критикам и продюсерам, что про него было решено снять отдельное шоу. Из всех сериалов, которые к настоящему моменту выпустили Marvel и Netflix, «Каратель» является самым мрачным, жестоким и кровавым. В отличие от того же Мэтта Мёрдока или других членов команды Защитников, которые в большинстве случаев стараются действовать по принципу «не убей», перед Фрэнком Каслом такой вопрос никогда не встает. Он профессиональный убийца, и если ему становится известно, что кто-то совершает нечто незаконное, он без <!@#$%> кладет этому конец. Однако зрителей ждут не только перестрелки, драки и убийства. Динамичные и весьма реалистичные сцены разборок с плохими парнями чередуются с болезненными воспоминаниями героя о семье и службе в горячих точках. Создатели сериала решили сделать упор не только на тему отмщения, но и исследовать психологию людей, способных на столь разрушительные действия. Как человек, который испытал травматический опыт, будь то потеря любимых или ужасы войны, с этим справляется? Как переживает свое горе, пытаясь сдержать гнев и ярость? Чем именно люди, подобные Фрэнку Каслу, оправдывают свою жестокость, и можно ли ее оправдать в принципе? Все эти острые вопросы не побоялись поднять авторы «Карателя».

MediaInfo

General
Complete name : E:\Marvels.The.Punisher.S02E01.rus.LostFilm.TV.avi
Format : AVI
Format/Info : Audio Video Interleave
File size : 496 MiB
Duration : 52mn 26s
Overall bit rate mode : Variable
Overall bit rate : 1 323 Kbps
Writing application : Nandub v1.0rc2
Writing library : Nandub build 1853/release
Video
ID : 0
Format : MPEG-4 Visual
Format profile : Advanced Simple@L5
Format settings, BVOP : No
Format settings, QPel : No
Format settings, GMC : No warppoints
Format settings, Matrix : Default (MPEG)
Codec ID : XVID
Codec ID/Hint : XviD
Duration : 52mn 26s
Bit rate : 1 125 Kbps
Width : 720 pixels
Height : 400 pixels
Display aspect ratio : 16:9
Frame rate : 23.976 fps
Color space : YUV
Chroma subsampling : 4:2:0
Bit depth : 8 bits
Scan type : Progressive
Compression mode : Lossy
Bits/(Pixel*Frame) : 0.163
Stream size : 422 MiB (85%)
Writing library : XviD 1.2.1 (UTC 2008-12-04)
Audio
ID : 1
Format : MPEG Audio
Format version : Version 1
Format profile : Layer 3
Mode : Joint stereo
Codec ID : 55
Codec ID/Hint : MP3
Duration : 52mn 26s
Bit rate mode : Variable
Bit rate : 192 Kbps
Channel(s) : 2 channels
Sampling rate : 48.0 KHz
Compression mode : Lossy
Stream size : 69.6 MiB (14%)
Alignment : Aligned on interleaves
Interleave, duration : 24 ms (0.58 video frame)
Interleave, preload duration : 492 ms
Writing library : LAME3.97b
Encoding settings : -m j -V 4 -q 3 -lowpass 18.6 --abr 192

Релиз подготовлен RG Serials

Показать сообщения:    
Ответить на тему

Текущее время: 18-Фев 18:53

Часовой пояс: UTC ± 0



Вы не можете начинать темы
Вы не можете отвечать на сообщения
Вы не можете редактировать свои сообщения
Вы не можете удалять свои сообщения
Вы не можете голосовать в опросах
Вы не можете прикреплять файлы к сообщениям
Вы не можете скачивать файлы