FREELEECH СКАЧАННОЕ НЕ УЧИТЫВАЕТСЯ! 


Специалист [01-08 из 08] (Александр Аншютц) [2017, Детектив, WEBRip] от GeneralFilm

Ответить на тему
 
Автор

Сообщение

Mercury ®

Пол: Мужской

Стаж: 7 месяцев 23 дня

Сообщений: 964

Репутация: 569

[+] [-]

Награды: 4 (Подробнее)

Boss (Количество: 1) Meloman (Количество: 1) Prestige (Количество: 1)

Вне форума

[Профиль] [ЛС]

Создавать темы 29-Янв-2019 07:23

[Цитировать]

Информация о фильме
Оригинальное название: Специалист
Год выпуска: 2017
Жанр: Детектив
Выпущено: Россия, ООО «Студия РоЕл»
Режиссер: Александр Аншютц
В ролях: Сергей Жарков, Евгений Дакот, Светлана Брюханова, Анастасия Чепелюк, Александр Герасимов (III), Алёна Новицкая, Николай Шрайбер, Василий Шмаков
О фильме: Дмитрий — «специалист по изъятию», так называемый охотник за головами. Он трудится не щадя себя, чтобы исполнить заветную мечту — поработать в собственной кофейне. За короткий срок Дмитрий выполняет ряд сложных заказов: находит заложников в Германии и Эстонии, спасает похищенную девочку в Турции, обезвреживает группу работорговцев. И каждый раз надеется, что очередной заказ станет последним перед спокойной жизнью. Попутно палки в колеса Специалисту вставляет нечистоплотный конкурент по прозвищу Боцман. Однажды, несмотря на взаимную неприязнь, Специалист и Боцман спасают друг друга и становятся напарниками. Дмитрий по-прежнему надеется уйти из смертельно опасного «бизнеса», но его с напарником ждет прощальный сюрприз…

Качество: WEBRip
Видео: XviD build 73, 720x400 (16:9), 25.000 fps, ~ 1360 Kbps (~ 0.190 bit/pixel)
Аудио: 48.0 kHz, AC3, 2/0 ch, 192 kbps
Продолжительность: 2 x ~ 00:50:00
Перевод: Не требуется
Cубтитры: нет

Скриншоты

MediaInfo

General
Complete name : D:RazdachiSpecialist.2017.WEBRip.GeneralFilmSpecialist.e01.avi
Format : AVI
Format/Info : Audio Video Interleave
File size : 557 MiB
Duration : 49 min 47 s
Overall bit rate : 1 564 kb/s
Writing application : VirtualDubMod 1.5.10.3 | www.virtualdub-fr.org || (build 2550/release)
Writing library : VirtualDubMod build 2550/release
Video
ID : 0
Format : MPEG-4 Visual
Format profile : Advanced Simple@L5
Format settings : BVOP1 / Custom Matrix
Format settings, BVOP : 1
Format settings, QPel : No
Format settings, GMC : No warppoints
Format settings, Matrix : Custom
Codec ID : XVID
Codec ID/Hint : XviD
Duration : 49 min 47 s
Bit rate : 1 362 kb/s
Width : 720 pixels
Height : 400 pixels
Display aspect ratio : 16:9
Frame rate : 25.000 FPS
Color space : YUV
Chroma subsampling : 4:2:0
Bit depth : 8 bits
Scan type : Progressive
Compression mode : Lossy
Bits/(Pixel*Frame) : 0.189
Stream size : 485 MiB (87%)
Writing library : XviD 73
Audio
ID : 1
Format : AC-3
Format/Info : Audio Coding 3
Commercial name : Dolby Digital
Codec ID : 2000
Duration : 49 min 47 s
Bit rate mode : Constant
Bit rate : 192 kb/s
Channel(s) : 2 channels
Channel layout : L R
Sampling rate : 48.0 kHz
Frame rate : 31.250 FPS (1536 SPF)
Bit depth : 16 bits
Compression mode : Lossy
Stream size : 68.4 MiB (12%)
Alignment : Split accross interleaves
Interleave, duration : 40 ms (1.00 video frame)
Interleave, preload duratio : 500 ms
Service kind : Complete Main
Релиз от:
Показать сообщения:    
Ответить на тему

Текущее время: 18-Фев 18:51

Часовой пояс: UTC ± 0



Вы не можете начинать темы
Вы не можете отвечать на сообщения
Вы не можете редактировать свои сообщения
Вы не можете удалять свои сообщения
Вы не можете голосовать в опросах
Вы не можете прикреплять файлы к сообщениям
Вы не можете скачивать файлы