FREELEECH СКАЧАННОЕ НЕ УЧИТЫВАЕТСЯ! 


За витриной [01-16 из 16] (Мила Погребиская) [2018, Мелодрама, WEBRip] от Files-x

Ответить на тему
 
Автор

Сообщение

Mercury ®

Пол: Мужской

Стаж: 7 месяцев 23 дня

Сообщений: 964

Репутация: 569

[+] [-]

Награды: 4 (Подробнее)

Boss (Количество: 1) Meloman (Количество: 1) Prestige (Количество: 1)

Вне форума

[Профиль] [ЛС]

Создавать темы 29-Янв-2019 08:21

[Цитировать]

Информация о фильме
Оригинальное название: За витриной
Год выхода: 2018
Жанр: Мелодрама
Режиссер: Мила Погребиская
В ролях: Сергей Басок, Елизавета Фалей, Ксения Мишина, Наталия Денисенко, Андрей Фединчик, Анна Лебедева, Ольга Радчук, Оксана Сташенко, Константин Данилюк, Дмитрий Чернов (II), Дмитрий Сарансков, Всеволод Шекита, Глеб Михайличенко, Вероника Братусина, Владимир Гончаров (III), Елена Светлицкая, Антонина Макарчук, Екатерина Вайвала
О фильме:
Предприниматель Андрей Ветров владеет сетью модных магазинов в столице и по всей стране. Молодой красавец – жесткий бизнесмен, завидный жених и любимец роскошных женщин. Но ему не дает покоя бедная провинциалка Галя – незаметная продавщица, которая отчаянно пытается выбиться из нищеты и прокормить двух своих братьев...

Страна: Украина
Студия: Artforms production
Продолжительность: 2 х 00:47:00
Перевод: Не требуется
Файл
Кодек: XviD
Качество: WEBRip
Видео: XviD, ~ 1609 Кбит/с, 720x400, 25 кадр/с
Звук: AC3, 2 ch, 192 Кбит/с

Скриншоты



MediaInfo

General
Complete name : C:01.За витриной.(2018).WEBRip.by.Nicodem.Files-x.avi
Format : AVI
Format/Info : Audio Video Interleave
File size : 608 MiB
Duration : 46mn 59s
Overall bit rate : 1 811 Kbps
Writing application : VirtualDubMod 1.5.10.3 | www.virtualdub-fr.org || (build 2550/release)
Writing library : VirtualDubMod build 2550/release
Video
ID : 0
Format : MPEG-4 Visual
Format profile : Advanced Simple@L5
Format settings, BVOP : 1
Format settings, QPel : No
Format settings, GMC : No warppoints
Format settings, Matrix : Custom
Codec ID : XVID
Codec ID/Hint : XviD
Duration : 46mn 59s
Bit rate : 1 609 Kbps
Width : 720 pixels
Height : 400 pixels
Display aspect ratio : 16:9
Frame rate : 25.000 fps
Color space : YUV
Chroma subsampling : 4:2:0
Bit depth : 8 bits
Scan type : Progressive
Compression mode : Lossy
Bits/(Pixel*Frame) : 0.223
Stream size : 541 MiB (89%)
Writing library : XviD 73
Audio
ID : 1
Format : AC-3
Format/Info : Audio Coding 3
Mode extension : CM (complete main)
Codec ID : 2000
Duration : 46mn 59s
Bit rate mode : Constant
Bit rate : 192 Kbps
Channel(s) : 2 channels
Channel positions : Front: L R
Sampling rate : 48.0 KHz
Bit depth : 16 bits
Compression mode : Lossy
Stream size : 64.5 MiB (11%)
Alignment : Split accross interleaves
Interleave, duration : 40 ms (1.00 video frame)
Interleave, preload duration : 500 ms
Релиз от:
Показать сообщения:    
Ответить на тему

Текущее время: 18-Фев 19:28

Часовой пояс: UTC ± 0



Вы не можете начинать темы
Вы не можете отвечать на сообщения
Вы не можете редактировать свои сообщения
Вы не можете удалять свои сообщения
Вы не можете голосовать в опросах
Вы не можете прикреплять файлы к сообщениям
Вы не можете скачивать файлы