FREELEECH СКАЧАННОЕ НЕ УЧИТЫВАЕТСЯ! 


Лучше всех [01-04 из 04] (Максим Бернадский) [2018, Мелодрама, WEB-DLRip] от Files-x

Ответить на тему
 
Автор

Сообщение

Mercury ®

Пол: Мужской

Стаж: 7 месяцев 23 дня

Сообщений: 964

Репутация: 569

[+] [-]

Награды: 4 (Подробнее)

Boss (Количество: 1) Meloman (Количество: 1) Prestige (Количество: 1)

Вне форума

[Профиль] [ЛС]

Создавать темы 01-Фев-2019 09:07

[Цитировать]

Информация о фильме
Оригинальное название: Лучше всех
Год выхода: 2018
Жанр: Мелодрама
Режиссер: Максим Бернадский
В ролях: Александра Эпштейн, Дмитрий Пчела, Наталья Калатай, Дмитрий Сова, Игорь Пазыч, Дарина Панасенко, Яков Кучеревский, Инна Мирошниченко, Алексей Нагрудный, Ольга Морозова, Юрий Высоцкий, Алексей Дзюбинский, Полина Носыхина, Екатерина Козлова, Ангелина Прийма
О фильме:
Маша Лаврова живет в небольшом городке с мамой Анной, старшей сестрой Надеждой, ее мужем Сергеем и их дочкой Соней. Маша - подающая большие надежды талантливая пианистка, а Сергей с Надей - молодые ученые, которых уже давно зовут работать в столицу. Но неожиданно приходит беда: мать Маши и Нади погибает в автомобильной аварии, сама Маша получает травму, которая разрушает ее мечту стать пианисткой, а любимый парень изменяет ей с другой девушкой...
Страна: Россия, Украина
Студия: Компания "FILM.UA"
Продолжительность: 4 х 00:47:00
Перевод: Не требуется
Файл
Кодек: XviD
Качество: WEB-DLRip
Видео: XviD, ~ 1896 Кбит/с, 720x400, 25 кадр/с
Звук: AC3, 2 ch, 192 Кбит/с

MediaInfo

General
Complete name : C:01.Лучше всех.(2018).WEB-DLRip.by.Nicodem.Files-x.avi
Format : AVI
Format/Info : Audio Video Interleave
File size : 699 MiB
Duration : 46mn 35s
Overall bit rate : 2 098 Kbps
Writing application : VirtualDubMod 1.5.10.3 | www.virtualdub-fr.org || (build 2550/release)
Writing library : VirtualDubMod build 2550/release
Video
ID : 0
Format : MPEG-4 Visual
Format profile : Advanced Simple@L5
Format settings, BVOP : 1
Format settings, QPel : No
Format settings, GMC : No warppoints
Format settings, Matrix : Custom
Codec ID : XVID
Codec ID/Hint : XviD
Duration : 46mn 35s
Bit rate : 1 896 Kbps
Width : 720 pixels
Height : 400 pixels
Display aspect ratio : 16:9
Frame rate : 25.000 fps
Color space : YUV
Chroma subsampling : 4:2:0
Bit depth : 8 bits
Scan type : Progressive
Compression mode : Lossy
Bits/(Pixel*Frame) : 0.263
Stream size : 632 MiB (90%)
Writing library : XviD 73
Audio
ID : 1
Format : AC-3
Format/Info : Audio Coding 3
Mode extension : CM (complete main)
Codec ID : 2000
Duration : 46mn 35s
Bit rate mode : Constant
Bit rate : 192 Kbps
Channel(s) : 2 channels
Channel positions : Front: L R
Sampling rate : 48.0 KHz
Bit depth : 16 bits
Compression mode : Lossy
Stream size : 64.0 MiB (9%)
Alignment : Split accross interleaves
Interleave, duration : 40 ms (1.00 video frame)
Interleave, preload duration : 500 ms
Релиз от:
Показать сообщения:    
Ответить на тему

Текущее время: 18-Фев 18:52

Часовой пояс: UTC ± 0



Вы не можете начинать темы
Вы не можете отвечать на сообщения
Вы не можете редактировать свои сообщения
Вы не можете удалять свои сообщения
Вы не можете голосовать в опросах
Вы не можете прикреплять файлы к сообщениям
Вы не можете скачивать файлы