FREELEECH СКАЧАННОЕ НЕ УЧИТЫВАЕТСЯ! 


Химера / Braid (Митци Пейроне) [2018, триллер, детектив, WEB-DL 1080p] | iTunes

Ответить на тему
 
Автор

Сообщение

Mercury ®

Пол: Мужской

Стаж: 7 месяцев 23 дня

Сообщений: 964

Репутация: 569

[+] [-]

Награды: 4 (Подробнее)

Boss (Количество: 1) Meloman (Количество: 1) Prestige (Количество: 1)

Вне форума

[Профиль] [ЛС]

Создавать темы 09-Фев-2019 01:09

[Цитировать]

Информация о фильме
Название: Химера
Оригинальное название: Braid
Год выхода: 2018
Жанр: триллер, детектив
Режиссер: Митци Пейроне
В ролях: Мадлен Брюэр, Скотт Коэн, Сара Хэй, Имоджен Уотерхаус, Маурицио Овейлл, Мэри Лурман, Брэд Калькатерра, Дхони Миддлтон, Джилл Далтон, Этель Фишер
О фильме:
Чтобы провернуть ограбление, девушки с мелкокриминальными наклонностями Петула и Тильда затевают игру в доктора с подругой детства — безумной хозяйкой огромного особняка, наследницей миллионов. Но скоро преступницы оказываются в зловещем лабиринте кошмаров, извращений и галлюцинаций, полном болезненных фантазий и садистских пыток.

Страна: США
Студия: Somnia Productions, Wandering Bard
Продолжительность: 01:21:30
Перевод: дублированный [iTunes]
Файл
Кодек: H.264
Качество: WEB-DL 1080p
Видео: AVC, 1920x802 (2.40:1), 25 fps ~ 4450 Kbps
Звук:
AC3, 48 KHz, 6 ch ~ 384 Kb/s (русский)
AC3, 48 KHz, 6 ch ~ 384 Kb/s (английский)
Субтитры: английские

MI:

Общее
Уникальный идентификатор : 170949943332614068248257874083343773135 (0x809BC2F0B7B112FFB0F39D36DFDC2DCF)
Полное имя : Q:TorFBraid.2019.WEB-DL.1080p.mkv
Формат : Matroska
Версия формата : Version 2
Размер файла : 3,03 Гбайт
Продолжительность : 1 ч. 21 м.
Общий поток : 5325 Кбит/сек
Дата кодирования : UTC 2019-02-08 15:28:14
Программа кодирования : mkvmerge v5.4.0 ('Piper') built on Mar 10 2012 13:34:39
Библиотека кодирования : Lavf57.71.100
Видео
Идентификатор : 1
Формат : AVC
Формат/Информация : Advanced Video Codec
Профиль формата : High@L4.0
Параметр CABAC формата : Да
Параметр ReFrames формата : 5 кадров
Идентификатор кодека : V_MPEG4/ISO/AVC
Продолжительность : 1 ч. 21 м.
Битрейт : 4451 Кбит/сек
Ширина : 1920 пикселей
Высота : 802 пикселя
Соотношение сторон : 2,40:1
Частота кадров : 25,000 кадров/сек
Цветовое пространство : YUV
Субдискретизация насыщенности : 4:2:0
Битовая глубина : 8 бит
Тип развёртки : Прогрессивная
Бит/(Пиксели*Кадры) : 0.116
Размер потока : 2,53 Гбайт (84%)
Язык : English
Default : Да
Forced : Нет
Основные цвета : BT.709-5, BT.1361, IEC 61966-2-4, SMPTE RP177
Характеристики трансфера : BT.709-5, BT.1361
Коэффициенты матрицы : BT.709-5, BT.1361, IEC 61966-2-4 709, SMPTE RP177
Аудио #1
Идентификатор : 2
Формат : AC-3
Формат/Информация : Audio Coding 3
Расширение режима : CM (complete main)
Идентификатор кодека : A_AC3
Продолжительность : 1 ч. 21 м.
Вид битрейта : Постоянный
Битрейт : 384 Кбит/сек
Каналы : 6 каналов
Расположение каналов : Front: L C R, Side: L R, LFE
Частота : 48,0 КГц
Битовая глубина : 16 бит
Метод сжатия : С потерями
Размер потока : 224 Мбайт (7%)
Заголовок : DUB
Язык : Russian
Default : Да
Forced : Нет
DURATION : 01:21:24.703000000
Аудио #2
Идентификатор : 3
Формат : AC-3
Формат/Информация : Audio Coding 3
Расширение режима : CM (complete main)
Идентификатор кодека : A_AC3
Продолжительность : 1 ч. 21 м.
Вид битрейта : Постоянный
Битрейт : 384 Кбит/сек
Каналы : 6 каналов
Расположение каналов : Front: L C R, Side: L R, LFE
Частота : 48,0 КГц
Битовая глубина : 16 бит
Метод сжатия : С потерями
Задержка видео : 30 мс.
Размер потока : 224 Мбайт (7%)
Заголовок : 5.1
Язык : English
Default : Нет
Forced : Нет
Текст
Идентификатор : 4
Формат : UTF-8
Идентификатор кодека : S_TEXT/UTF8
Идентификатор кодека/Информация : UTF-8 Plain Text
Заголовок : 23.98 ---> 25
Язык : English
Default : Нет
Forced : Нет
Меню
00:00:00.000 : en:Глава 1
00:03:20.600 : en:Глава 2
00:07:31.399 : en:Глава 3
00:13:05.279 : en:Глава 4
00:21:17.078 : en:Глава 5
00:28:55.877 : en:Глава 6
00:37:39.837 : en:Глава 7
00:45:31.197 : en:Глава 8
00:51:10.117 : en:Глава 9
00:59:30.517 : en:Глава 10
01:06:14.596 : en:Глава 11
01:13:12.075 : en:Глава 12
01:16:57.394 : en:Глава 13
Семпл

Скриншоты

Показать сообщения:    
Ответить на тему

Текущее время: 18-Фев 18:50

Часовой пояс: UTC ± 0



Вы не можете начинать темы
Вы не можете отвечать на сообщения
Вы не можете редактировать свои сообщения
Вы не можете удалять свои сообщения
Вы не можете голосовать в опросах
Вы не можете прикреплять файлы к сообщениям
Вы не можете скачивать файлы