FREELEECH СКАЧАННОЕ НЕ УЧИТЫВАЕТСЯ! 


Робин Гуд: Начало / Robin Hood (Отто Батхёрст) [2018, Боевик, триллер, приключения, HDRip-AVC] от ExKinoRay | HDrezka Studio

Ответить на тему
 
Автор

Сообщение

Mercury ®

Пол: Мужской

Стаж: 7 месяцев 23 дня

Сообщений: 964

Репутация: 569

[+] [-]

Награды: 4 (Подробнее)

Boss (Количество: 1) Meloman (Количество: 1) Prestige (Количество: 1)

Вне форума

[Профиль] [ЛС]

Создавать темы 10-Фев-2019 19:30

[Цитировать]

Информация о фильме
Название: Робин Гуд: Начало
Оригинальное название: Robin Hood
Год выхода: 2018
Жанр: Боевик, триллер, приключения
Режиссер: Отто Батхёрст
В ролях: Тэрон Эджертон, Джейми Фокс, Бен Мендельсон, Ив Хьюсон, Джейми Дорнан, Тим Минчин, Пол Андерсон, Ф. Мюррэй Абрахам, Йен Пек, Корнелиус Бут
О фильме :
Юный Робин долго время отсутствовал, но вернувшись из похода, он обнаруживает, что его семья стала жертвой наговоров и обмана. На его родине творится беззаконие и несправедливость, и он решает начать борьбу с этим злом. Уйдя в Шервурдский лес, он собирает простых людей, пострадавших от произвола шерифа Нотингема. Постепенно вокруг него формируется большой отряд, члены которого будут совершать нападения на богачей и раздавать отнятое у них золото нуждающимся. В этом лесу они знают каждый уголок, каждую тропинку, поэтому войска шерифа никак не могут одолеть повстанцев. Беспомощный и разъяренный шериф объявляет награду за голову Робин Гуда.

Страна: США
Студия: Summit Entertainment,Appian Way, Pixoloid Studios
Продолжительность: 01:56:08
Перевод: Профессиональный многоголосый | HDRezka Studio
Файл
Формат: MKV
Качество: HDRip-AVC
Видео: MPEG-4 AVC, 768x320, - 820 Кбит/с
Аудио: AAC-HE, 2 ch, - 76 Кбит/с
Субтитры: Нет

MI

Общее
Уникальный идентификатор : 204361914723064170277494378438171037570 (0x99BEAC50A87DD34E86E26FF9E5400F82)
Полное имя : D:MOVIESRobin Hood.2018.HDRip-AVC.ExKinoRay.mkv
Формат : Matroska
Версия формата : Version 4 / Version 2
Размер файла : 745 Мбайт
Продолжительность : 1 ч. 56 м.
Общий поток : 894 Кбит/сек
Дата кодирования : UTC 2019-02-10 17:20:30
Программа кодирования : mkvmerge v15.0.0 ('Duel with the Devil') 64-bit
Библиотека кодирования : libebml v1.3.5 + libmatroska v1.4.5
Видео
Идентификатор : 1
Формат : AVC
Формат/Информация : Advanced Video Codec
Профиль формата : High@L4.1
Параметр CABAC формата : Да
Параметр RefFrames формата : 12 кадров
Идентификатор кодека : V_MPEG4/ISO/AVC
Продолжительность : 1 ч. 56 м.
Битрейт : 820 Кбит/сек
Ширина : 768 пикселей
Высота : 320 пикселей
Соотношение сторон : 2,40:1
Режим частоты кадров : Постоянный
Частота кадров : 23,976 (24000/1001) кадра/сек
Цветовое пространство : YUV
Субдискретизация насыщенности : 4:2:0
Битовая глубина : 8 бит
Тип развёртки : Прогрессивная
Бит/(Пиксели*Кадры) : 0.139
Размер потока : 680 Мбайт (91%)
Библиотека кодирования : x264 core 152 r2851kMod ba24899
Настройки программы : cabac=1 / ref=12 / deblock=1:-3:-3 / analyse=0x3:0x133 / me=umh / subme=10 / psy=1 / fade_compensate=0.00 / psy_rd=1.00:0.14 / mixed_ref=1 / me_range=32 / chroma_me=1 / trellis=2 / 8x8dct=1 / cqm=0 / deadzone=21,11 / fast_pskip=0 / chroma_qp_offset=-3 / threads=6 / lookahead_threads=1 / sliced_threads=0 / nr=0 / decimate=0 / interlaced=0 / bluray_compat=0 / constrained_intra=0 / bframes=12 / b_pyramid=2 / b_adapt=2 / b_bias=0 / direct=3 / weightb=1 / open_gop=0 / weightp=2 / keyint=240 / keyint_min=23 / scenecut=40 / intra_refresh=0 / rc_lookahead=40 / rc=2pass / mbtree=1 / bitrate=820 / ratetol=1.0 / qcomp=0.60 / qpmin=0 / qpmax=69 / qpstep=4 / cplxblur=20.0 / qblur=0.5 / ip_ratio=1.40 / aq=3:1.00
Default : Да
Forced : Нет
Аудио
Идентификатор : 2
Формат : AAC
Формат/Информация : Advanced Audio Codec
Профиль формата : HE-AAC / LC
Идентификатор кодека : A_AAC
Продолжительность : 1 ч. 56 м.
Битрейт : 76,0 Кбит/сек
Каналы : 2 канала
Расположение каналов : Front: L R
Частота : 48,0 КГц / 24,0 КГц
Частота кадров : 23,438 кадра/сек (1024 SPF)
Метод сжатия : С потерями
Задержка видео : 31 мс.
Размер потока : 63,3 Мбайт (8%)
Default : Да
Forced : Нет

Скриншоты


Показать сообщения:    
Ответить на тему

Текущее время: 18-Фев 19:14

Часовой пояс: UTC ± 0



Вы не можете начинать темы
Вы не можете отвечать на сообщения
Вы не можете редактировать свои сообщения
Вы не можете удалять свои сообщения
Вы не можете голосовать в опросах
Вы не можете прикреплять файлы к сообщениям
Вы не можете скачивать файлы