FREELEECH СКАЧАННОЕ НЕ УЧИТЫВАЕТСЯ! 


Пекарь и красавица / Сезон: 1 / Серии 1-5 из 17 (Фёдор Стуков) [2019, комедия, WEBRip]

Ответить на тему
 
Автор

Сообщение

Mercury ®

Пол: Мужской

Стаж: 7 месяцев 23 дня

Сообщений: 964

Репутация: 569

[+] [-]

Награды: 4 (Подробнее)

Boss (Количество: 1) Meloman (Количество: 1) Prestige (Количество: 1)

Вне форума

[Профиль] [ЛС]

Создавать темы 11-Фев-2019 19:19

[Цитировать]

Пекарь и красавица -Год выпуска: 2019
Производство: Россия, Art Pictures Vision, AVK Production
Жанр: Комедия
Продолжительность: 00:24:00
Субтитры: Нет-Режиссёр: Фёдор Стуков-В ролях: Анна Чиповская, Никита Волков, Даниил Вахрушев, Джеймс Тратас, Алина Алексеева (II), Ленни Хейден, Евгения Дмитриева, Алексей Макаров, Артур Ваха, Арарат Кещян, Алексей Розин, Вячеслав Манучаров, Екатерина Воронина (II), Надежда Игошина, Юлия Сулес, Евгения Ахременко, Ольга Веникова-Описание: «Пекарь и красавица» (2019) — романтическая комедия с Аней Чиповской в главной роли. Окунуться в мир моды и гламура можно, если начать смотреть сериал онлайн. Пекарь из Малаховки Андрей даже и не подозревал, как изменит его жизнь девушка-красавица Саша, которую ему посчастливилось встретить в туалете ресторана. Роскошные вечеринки в стиле «Великого Гэтсби», выходные в Лондоне, светские тусовки, вездесущие папарацци и море соблазнов – простому парню Андрею такое и не снилось. Всё бы ничего, только оскорблённая экс-подружка мечтает о мести, а бывший парень Саши, сексуальный голливудский актёр, намерен её вернуть
Релиз группа
:arrow: Все раздачи сериала
:arrow: Сэмпл-Качество: WEBRip
Формат: AVI
Видео кодек: XviD
Аудио кодек: AC3
Видео: 720x400 (16:9), 25.000 fps, XviD build 73, 1500 Kbps, 0.228 Bits/Pixel
Аудио: 48 kHz, AC3 Dolby Digital, 2 ch, 192 Kbps

MI

General
Complete name : E:\исходники\Пекарь и красавица.2019.WEB-DLRip.RG.Russkie.serialy.&.drakula05\01.Пекарь и красавица.2019.WEB-DLRip.RG.Russkie.serialy.&.drakula05.avi
Format : AVI
Format/Info : Audio Video Interleave
File size : 283 MiB
Duration : 23 min 16 s
Overall bit rate : 1 702 kb/s
Writing application : VirtualDubMod 1.5.10.3 | www.virtualdub-fr.org || (build 2550/release)
Writing library : VirtualDubMod build 2550/release
Video
ID : 0
Format : MPEG-4 Visual
Format profile : Advanced Simple@L5
Format settings : BVOP1 / Custom Matrix
Format settings, BVOP : 1
Format settings, QPel : No
Format settings, GMC : No warppoints
Format settings, Matrix : Custom
Codec ID : XVID
Codec ID/Hint : XviD
Duration : 23 min 16 s
Bit rate : 1 500 kb/s
Width : 720 pixels
Height : 400 pixels
Display aspect ratio : 16:9
Frame rate : 25.000 FPS
Color space : YUV
Chroma subsampling : 4:2:0
Bit depth : 8 bits
Scan type : Progressive
Compression mode : Lossy
Bits/(Pixel*Frame) : 0.208
Stream size : 250 MiB (88%)
Writing library : XviD 73
Audio
ID : 1
Format : AC-3
Format/Info : Audio Coding 3
Codec ID : 2000
Duration : 23 min 16 s
Bit rate mode : Constant
Bit rate : 192 kb/s
Channel(s) : 2 channels
Channel positions : Front: L R
Sampling rate : 48.0 kHz
Frame rate : 31.250 FPS (1536 SPF)
Bit depth : 16 bits
Compression mode : Lossy
Stream size : 32.0 MiB (11%)
Alignment : Split accross interleaves
Interleave, duration : 40 ms (1.00 video frame)
Interleave, preload duratio : 500 ms
Service kind : Complete Main

Внимание! Раздача ведётся путём добавления новых серий!

Внимание! Раздача ведётся путём добавления новых серий
Внимание! Раздача ведётся путём добавления новых серий; при каждом добавлении создётся новый торрент.
Чтобы начать докачку новой серии, пользователям необходимо сделать следующее:
1) остановить скачивание
2) удалить старый торрент у себя из клиента (старые серии удалять не надо)
3) скачать новый торрент и запустить его у себя в клиенте вместо старого, при этом указать клиенту путь в старую папку куда и должно происходить скачивание новых серий.
Ваш клиент при этом должен произвести хеширование (проверку) старой папки (если не производит сам - помогите ему сделать это), и будет докачивать только те серии которых у вас ещё нет. Старые серии при этом не удаляются, а продолжают раздаваться!
Eсли вы уже удалили старые серии, то предотвратить повторную закачку старых серий можно, отжав галочку в соответствовавших местах при запуске нового торрента.

Скриншоты

Показать сообщения:    
Ответить на тему

Текущее время: 18-Фев 19:25

Часовой пояс: UTC ± 0



Вы не можете начинать темы
Вы не можете отвечать на сообщения
Вы не можете редактировать свои сообщения
Вы не можете удалять свои сообщения
Вы не можете голосовать в опросах
Вы не можете прикреплять файлы к сообщениям
Вы не можете скачивать файлы