X

Привет, дорогой друг!

У тебя установлено расширение AdBlock или подобное. Добавь наш сайт в белый список, и тем самым внесешь свой вклад в его развитие. Инструкция как отключить AdBlock
Регистрация ·
Имя: Пароль:  
· Забыли пароль?
 FREELEECH СКАЧАННОЕ НЕ УЧИТЫВАЕТСЯ! 


Владимир Семёнович Высоцкий: Коллекция фильмов (1959-1976) DVDRip, HDTVRip, SATRip

Ответить на тему
 
Автор

Сообщение

dybrik13 ®

Пол: Мужской

Стаж: 4 месяца 25 дней

Сообщений: 738

Репутация: 8285

[+] [-]

Откуда: Киев



Награды: 6 (Подробнее)

500 messages (Количество: 1) 500 releases (Количество: 1) Active moderator (Количество: 1)

Вне форума

[Профиль] [ЛС]

Создавать темы 14-Июл-2018 21:36

[Цитировать]

Владимир Семёнович Высоцкий: Коллекция фильмов (1959-1976)- Производство: СССР
Жанр: драма, комедия, приключения
Актеры: Владимир Высоцкий и другие-Коллекция фильмов с участием Владимира Высоцкого, за свою актёрскую карьеру снявшегося более чем в 25 фильмах.
Владимир Семёнович Высоцкий — советский поэт, актёр и автор-исполнитель песен, автор прозаических произведений. Лауреат Государственной премии СССР (1987, посмертно).
Актёр Театра драмы и комедии на Таганке в Москве (1964—1980). Владимир Высоцкий сыграл более 20 ролей в театре. Многие его работы в кинематографе также полюбились зрителям. Владимир Высоцкий вошёл в историю как автор-исполнитель своих песен под русскую семиструнную гитару. По итогам опроса ВЦИОМ, проведённого в 2010 году, Высоцкий занял второе место в списке «кумиров XX века» после Юрия Гагарина.
Сам Высоцкий так говорил об авторской песне: "Я хочу сказать и заверить, что авторская песня требует очень большой работы. Эта песня все время живет с тобой, не дает тебе покоя ни днем, ни ночью."
-ДОПОЛНИТЕЛЬНО:

Биография:

Краткая биография
Имя: Владимир Семёнович Высоцкий
Дата рождения: 25 января 1938 | водолей
Место рождения: Москва, СССР
Дата смерти: 25 июля 1980 | 42 года
Место смерти: Москва, СССР
Карьера: Актер, певец, композитор, сценарист
Жанp: Драма, комедия, приключения ...
Рост: 1.70 м
Супруга: Изольда Жукова (развод), Людмила Абрамова (развод, двое детей), Марина Влади
Семья: Аркадий Высоцкий (сын), Никита Высоцкий (сын)
-Биография
Владимир Высоцкий родился в Москве, "Дом на Первой Мещанской, в конце" - согласно его же свидетельству из песни "Баллада о детстве". После пребывания в эвакуации на Урале, а затем вместе с отцом в послевоенной Германии, Высоцкий поселяется в Большом Каретном переулке («Где твои семнадцать лет? На Большом Каретном...»), где и сложился дружеский круг, которому Владимир Семенович показывал свои первые песни.
Высоцкий не сразу определил, что хочет быть актером. После окончания школы он поступает в московский инженерно-строительный институт, но проучившись в нем полгода, бросает его. Это решение он принял в новогоднюю ночь с 1955 на 1956 год. Они с Игорем Кохановским, школьным другом Высоцкого, решили встретить Новый год весьма своеобразно: за рисованием чертежей, без которых их просто не допустили бы к экзаменационной сессии. После боя курантов, выпив по бокалу шампанского, они принялись за дело. Где-то к двум часам ночи чертежи были готовы. Но тут Высоцкий встал, взял со стола баночку с тушью, и стал поливать ее остатками свой чертеж. "Все. Буду готовиться, есть еще полгода, попробую поступить в театральный. А это - не мое...", - сказал тогда Владимир Семенович.
С 1956 по 1960 годы Владимир - студент актерского отделения Школы-студии МХАТ им. В. И. Немировича-Данченко. На первом курсе он знакомится со своей будущей женой Изой Жуковой (род. 1937 г.).
В 1959 году Высоцкий дебютирует на театральной сцене (учебная работа) с ролью Порфирия Петровича в спектакле "Преступление и наказание" по Ф. М. Достоевскому.
После окончания училища Владимир работал в Московском драматическом театре им. А. С. Пушкина (с перерывами). Сыграл роль Лешего в спектакле "Аленький цветочек" по сказке С. Аксакова, а также еще около 10 ролей, в основном - эпизодических.
1961 г.
На съемках к/ф "713-й просит посадку" знакомится с Людмилой Абрамовой (род. в 1939 г.), ставшей его второй женой. Примерно в это же время Высоцкий начал писать свои первые песни. Собственно интерес к авторской песне у Высоцкого пробудился после знакомства с творчеством Булата Окуджавы, которого Владимир Семенович считал своим учителем. Позже он напишет "Песню о Правде и Лжи", посвященную Окуджаве.
Первые песни были написаны в стиле "дворовой романтики" и не воспринимались всерьез ни Высоцким, ни теми, кто был их первыми слушателями. Спустя несколько лет, в 1965-м, он напишет знаменитую "Подводную лодку", о которой Игорь Кохановский впоследствии скажет: "Подводная лодка - это было уже всерьез. И я думаю, что именно эта песня заявила о том, что пора его творческой юности кончилась."
В 1962 году у Владимира родился сын Аркадий, а в 1964 году - Никита.
Примерно в это же время Владимир Высоцкий приходит в Театр на Таганке, который по выражению самого Высоцкого, стал для него "своим театром". "Ко мне в театр пришел наниматься молодой человек. Когда я спросил его, что он хочет прочитать, он ответил: "Я несколько своих песен написал, послушаете?" Я согласился послушать одну песню, то есть, фактически, наша встреча должна была продлиться не более пяти минут. Но я слушал, не отрываясь, полтора часа", - вспоминает Юрий Любимов. Так начался творческий путь Высоцкого в Театре на Таганке.
Параллельно с работой в театре были киноработы. Самая известная и самая любимая роль - Жеглов в телесериале "Место встречи изменить нельзя". Тем не менее, этой роли могло и не быть... Майским вечером 78-го года, на даче в Одессе Высоцкий, Влади и Говорухин собрались, чтобы обсудить сценарий будущего фильма. И вдруг Марина Влади со слезами на глазах берет Говорухина за руку и уводит из комнаты. "Отпусти Володю, снимай другого артиста!". Ей вторил Высоцкий: "Пойми, мне так мало осталось! Я не могу год жизни тратить на эту роль." "Как много потеряли бы зрители, если бы я сдался в тот вечер", - вспоминает Говорухин.
А потом пришла Любовь. Марина Влади вошла в его жизнь в 1967 году. Высоцкий влюбился в нее после просмотра кинофильма "Колдунья". Он смотрел фильм по нескольку раз в день, мечтал о встрече многие годы. И вот, наконец, она состоялась. Первое знакомство произошло в ресторане ВТО - Высоцкий пришел туда после спектакля. "Краешком глаза я замечаю, что к нам направляется невысокий, плохо одетый молодой человек. Я мельком смотрю на него, и только светло-серые глаза на миг привлекают мое внимание. Но возгласы в зале заставляют меня прервать рассказ, и я поворачиваюсь к нему. Он подходит, молча берет мою руку и долго не выпускает, потом целует ее, садится напротив и уже больше не сводит с меня глаз. Его молчание не стесняет меня, мы смотрим друг на друга, как будто всегда были знакомы. Я знаю, что это - ты", - так описывает свое первое знакомство с Высоцким Марина Влади. Через несколько лет они поженились. Марина Влади была с ним рядом двенадцать лет. "Я жив, двенадцать лет тобой храним..." - успеет написать он на обратной стороне телеграфного бланка. И все эти годы Марина Влади пыталась замедлить бешеный ритм жизни Высоцкого.
"Работать надо!" - была его любимая поговорка. Если бы он мог, он работал бы круглые сутки. Сон - 3-4 часа, остальное - работа. Песни свои он писал в основном ночью. Приходил домой после спектакля, и садился за работу. Марина ставила перед ним чашку с обжигающим чаем, и тихо садилась в углу. Иногда она засыпала, и тогда, уже под утро, Высоцкий будил ее, чтобы прочесть строки, написанные за ночь.
...25 июля 1980 года. Высоцкого хоронила, казалось, вся Москва, хотя официального сообщения о смерти не было - в это время проходила московская Олимпиада. Только над окошком театральной кассы было вывешено скромное объявление: "Умер актер Владимир Высоцкий." Ни один человек не сдал обратно билет - каждый хранит его у себя как реликвию...
"Кому сказать спасибо, что - живой!" - написал Высоцкий в своем известном стихотворении. Высоцкий жив и сегодня, благодаря людской памяти, питавшейся и питающейся по сей день его стихотворениями, драматургическими произведениями, киноролями, песнями...

Содержание раздачи:

01.1959 - Сверстницы ... Петя, студент театрального училища:

Сверстницы (1959) DVDRip- Производство: СССР / Мосфильм
Жанр: Мелодрама
Режиссер: Василий Ордынский
Актеры: Лидия Федосеева-Шукшина, Людмила Крылова, Маргарита Кошелева, Владимир Костин, Всеволод Сафонов, Кирилл Столяров, Владимир Корецкий, Владимир Высоцкий, Александр Демьяненко, Владимир Высоцкий ...-Три подруги окончили школу. Одна поступила в медицинский институт, другую приняли на актерский факультет театрального училища, третью устроили на часовой завод... Фильм о первых шагах самостоятельной жизни девушек конца пятидесятых годов.-Возраст: 12+ (зрителям, достигшим 12 лет)
Продолжительность: 01:18:49
Качество видео: DVDRip
Видео: XviD, 720x432 (1.667), 25.000 fps, 2 443 Kbps (0.314 bpp)
Аудио: AC3, 2 ch, 192 Kbps

MediaInfo:

Общее
Полное имя                               : E:\Vysockij\01.1959 - Сверстницы ... Петя, студент театрального училища\01 Сверстницы 1959 DVDRip.avi
Формат                                   : AVI
Формат/Информация                        : Audio Video Interleave
Размер файла                             : 1,46 Гбайт
Продолжительность                        : 1 ч. 18 м.
Общий поток                              : 2645 Кбит/сек
Программа кодирования                    : VirtualDubMod 1.5.10.3 | www.virtualdub-fr.org || (build 2550/release)
Библиотека кодирования                   : VirtualDubMod build 2550/release
Видео
Идентификатор                            : 0
Формат                                   : MPEG-4 Visual
Профиль формата                          : Advanced Simple@L5
Настройки формата                        : BVOP1 / Custom Matrix
Параметр BVOP формата                    : 1
Параметр QPel формата                    : Нет
Параметр GMC формата                     : Без точки перехода
Параметр матрицы формата                 : Выборочная
Идентификатор кодека                     : XVID
Идентификатор кодека/Подсказка           : XviD
Продолжительность                        : 1 ч. 18 м.
Битрейт                                  : 2443 Кбит/сек
Ширина                                   : 720 пикселей
Высота                                   : 432 пикселя
Соотношение сторон                       : 5:3
Частота кадров                           : 25,000 кадров/сек
Цветовое пространство                    : YUV
Субдискретизация насыщенности            : 4:2:0
Битовая глубина                          : 8 бит
Тип развёртки                            : Прогрессивная
Метод сжатия                             : С потерями
Бит/(Пиксели*Кадры)                      : 0.314
Размер потока                            : 1,35 Гбайт (92%)
Библиотека кодирования                   : XviD 1.2.1 (UTC 2008-12-04)
Аудио
Идентификатор                            : 1
Формат                                   : AC-3
Формат/Информация                        : Audio Coding 3
Идентификатор кодека                     : 2000
Продолжительность                        : 1 ч. 18 м.
Вид битрейта                             : Постоянный
Битрейт                                  : 192 Кбит/сек
Каналы                                   : 2 канала
Расположение каналов                     : Front: L R
Частота                                  : 48,0 КГц
Частота кадров                           : 31,250 кадров/сек (1536 SPF)
Битовая глубина                          : 16 бит
Метод сжатия                             : С потерями
Размер потока                            : 108 Мбайт (7%)
Выравнивание                             : Разделение по промежуткам
Продолжительность промежутка             : 40  мс. (1,00 видеокадр)
Время предзагрузки промежутка            : 500  мс.
ServiceKind/String                       : Complete Main
Скриншоты:

02.1961 - Карьера Димы Горина ... шофер Софрон:

Карьера Димы Горина (1961) DVDRip- Производство: СССР / Киностудия им. М. Горького
Жанр: Мелодрама, комедия
Режиссер: Лев Мирский, Фрунзе Довлатян
Актеры: Татьяна Конюхова, Александр Демьяненко, Владимир Селезнёв (I), Владимир Высоцкий, Евгений Кудряшёв, Николай Казаков, Алексей Ванин, Рифат Алиев, Виталий Черменев, Владимир Высоцкий ...-Главного героя, финансового служащего Дмитрия Горина, ожидает судьба начальника отделения сберкассы. Но, по недоразумению, он выдаёт слишком большую сумму денег человеку, который работает в тайге строителем ЛЭП. Чтобы исправить ошибку, Дмитрий отправляется в тайгу. А приведя всё в порядок, не торопится возвращаться в Москву. Дело в том, что он открывает для себя новую жизнь, которая ему по душе, и встречает девушку, о которой мечтал…-Возраст: 6+ (зрителям, достигшим 6 лет)
Продолжительность: 01:34:21
Качество видео: DVDRip
Видео: XviD, 720x432 (1.667), 25.000 fps, 1 816 Kbps (0.234 bpp)
Аудио: AC3, 6 ch, 384 Kbps

MediaInfo:

Общее
Полное имя                               : E:\Vysockij\02.1962 - Карьера Димы Горина ... шофер Софрон\02 Карьера Димы Горина 1961 DVDRip.avi
Формат                                   : AVI
Формат/Информация                        : Audio Video Interleave
Размер файла                             : 1,46 Гбайт
Продолжительность                        : 1 ч. 34 м.
Общий поток                              : 2210 Кбит/сек
Программа кодирования                    : VirtualDubMod 1.5.10.3 | www.virtualdub-fr.org || (build 2550/release)
Библиотека кодирования                   : VirtualDubMod build 2550/release
Видео
Идентификатор                            : 0
Формат                                   : MPEG-4 Visual
Профиль формата                          : Advanced Simple@L5
Настройки формата                        : BVOP1 / Custom Matrix
Параметр BVOP формата                    : 1
Параметр QPel формата                    : Нет
Параметр GMC формата                     : Без точки перехода
Параметр матрицы формата                 : Выборочная
Идентификатор кодека                     : XVID
Идентификатор кодека/Подсказка           : XviD
Продолжительность                        : 1 ч. 34 м.
Битрейт                                  : 1816 Кбит/сек
Ширина                                   : 720 пикселей
Высота                                   : 432 пикселя
Соотношение сторон                       : 5:3
Частота кадров                           : 25,000 кадров/сек
Цветовое пространство                    : YUV
Субдискретизация насыщенности            : 4:2:0
Битовая глубина                          : 8 бит
Тип развёртки                            : Прогрессивная
Метод сжатия                             : С потерями
Бит/(Пиксели*Кадры)                      : 0.234
Размер потока                            : 1,20 Гбайт (82%)
Библиотека кодирования                   : XviD 1.2.1 (UTC 2008-12-04)
Аудио
Идентификатор                            : 1
Формат                                   : AC-3
Формат/Информация                        : Audio Coding 3
Идентификатор кодека                     : 2000
Продолжительность                        : 1 ч. 34 м.
Вид битрейта                             : Постоянный
Битрейт                                  : 384 Кбит/сек
Каналы                                   : 6 каналов
Расположение каналов                     : Front: L C R, Side: L R, LFE
Частота                                  : 48,0 КГц
Частота кадров                           : 31,250 кадров/сек (1536 SPF)
Битовая глубина                          : 16 бит
Метод сжатия                             : С потерями
Размер потока                            : 259 Мбайт (17%)
Выравнивание                             : Разделение по промежуткам
Продолжительность промежутка             : 40  мс. (1,00 видеокадр)
Время предзагрузки промежутка            : 500  мс.
ServiceKind/String                       : Complete Main
Скриншоты:

03.1962 - 713-й просит посадку ... морской пехотинец:

713-й просит посадку (1962) DVDRip- Производство: СССР / Ленфильм
Жанр: Драма, триллер
Режиссер: Григорий Никулин
Актеры: Владимир Честноков, Отар Коберидзе, Лев Круглый, Людмила Абрамова, Николай Корн, Ефим Копелян, Людмила Шагалова, Иосиф Конопацкий, Зана Занони, Владимир Высоцкий ...-Экипаж самолета, совершающего трансатлантический перелет, таинственным образом усыплен, и управляемому автопилотом самолету угрожает опасность. Пассажиры самолета — миссионер, солдат морской пехоты, адвокат, известная киноактриса с сыном, врач Рихард Гюнтер и другие — ни о чем не подозревают. Сможет ли опасность сплотить их?-Возраст: 16+ (зрителям, достигшим 16 лет)
Продолжительность: 01:13:33
Качество видео: DVDRip
Видео: XviD, 720x432 (1.667), 25.000 fps, 2 632 Kbps (0.338 bpp)
Аудио: AC3, 2 ch, 192 Kbps

MediaInfo:

Общее
Полное имя                               : E:\Vysockij\03.1962 - 713-й просит посадку ... морской пехотинец\03 713-й просит посадку 1962 DVDRip.avi
Формат                                   : AVI
Формат/Информация                        : Audio Video Interleave
Размер файла                             : 1,46 Гбайт
Продолжительность                        : 1 ч. 13 м.
Общий поток                              : 2834 Кбит/сек
Программа кодирования                    : VirtualDubMod 1.5.10.3 | www.virtualdub-fr.org || (build 2550/release)
Библиотека кодирования                   : VirtualDubMod build 2550/release
Видео
Идентификатор                            : 0
Формат                                   : MPEG-4 Visual
Профиль формата                          : Advanced Simple@L5
Настройки формата                        : BVOP1 / Custom Matrix
Параметр BVOP формата                    : 1
Параметр QPel формата                    : Нет
Параметр GMC формата                     : Без точки перехода
Параметр матрицы формата                 : Выборочная
Идентификатор кодека                     : XVID
Идентификатор кодека/Подсказка           : XviD
Продолжительность                        : 1 ч. 13 м.
Битрейт                                  : 2632 Кбит/сек
Ширина                                   : 720 пикселей
Высота                                   : 432 пикселя
Соотношение сторон                       : 5:3
Частота кадров                           : 25,000 кадров/сек
Цветовое пространство                    : YUV
Субдискретизация насыщенности            : 4:2:0
Битовая глубина                          : 8 бит
Тип развёртки                            : Прогрессивная
Метод сжатия                             : С потерями
Бит/(Пиксели*Кадры)                      : 0.338
Размер потока                            : 1,35 Гбайт (93%)
Библиотека кодирования                   : XviD 1.2.1 (UTC 2008-12-04)
Аудио
Идентификатор                            : 1
Формат                                   : AC-3
Формат/Информация                        : Audio Coding 3
Идентификатор кодека                     : 2000
Продолжительность                        : 1 ч. 13 м.
Вид битрейта                             : Постоянный
Битрейт                                  : 192 Кбит/сек
Каналы                                   : 2 канала
Расположение каналов                     : Front: L R
Частота                                  : 48,0 КГц
Частота кадров                           : 31,250 кадров/сек (1536 SPF)
Битовая глубина                          : 16 бит
Метод сжатия                             : С потерями
Размер потока                            : 101 Мбайт (7%)
Выравнивание                             : Разделение по промежуткам
Продолжительность промежутка             : 40  мс. (1,00 видеокадр)
Время предзагрузки промежутка            : 500  мс.
ServiceKind/String                       : Complete Main
Скриншоты:

04.1962 - Увольнение на берег ... Петр:

Увольнение на берег (1962) DVDRip- Производство: СССР / Мосфильм
Жанр: Мелодрама
Режиссер: Феликс Миронер
Актеры: Ариадна Шенгелая, Лев Прыгунов, Василий Макаров, Светлана Коновалова, Борис Дибров, Владимир Высоцкий, Владимир Трещалов, Геннадий Юхтин, Юлия Цоглин-Проникновенная мелодраматическая история из жизни военного моряка. Всего один день провел в южно-портовом городе уволенный на берег матрос Николай Валежников. Выполняя поручение друга, он встретился со многими людьми и познакомился с девушкой, которая будет ждать его возвращения...-Возраст: 12+ (зрителям, достигшим 12 лет)
Продолжительность: 01:23:06
Качество видео: DVDRip
Видео: XviD, 720x432 (1.667), 25.000 fps, 2 308 Kbps (0.297 bpp)
Аудио: AC3, 2 ch, 192 Kbps

MediaInfo:

Общее
Полное имя                               : E:\Vysockij\04.1962 - Увольнение на берег ... Петр\04 Увольнение на берег 1962 DVDRip.avi
Формат                                   : AVI
Формат/Информация                        : Audio Video Interleave
Размер файла                             : 1,46 Гбайт
Продолжительность                        : 1 ч. 23 м.
Общий поток                              : 2509 Кбит/сек
Программа кодирования                    : VirtualDubMod 1.5.10.3 | www.virtualdub-fr.org || (build 2550/release)
Библиотека кодирования                   : VirtualDubMod build 2550/release
Видео
Идентификатор                            : 0
Формат                                   : MPEG-4 Visual
Профиль формата                          : Advanced Simple@L5
Настройки формата                        : BVOP1 / Custom Matrix
Параметр BVOP формата                    : 1
Параметр QPel формата                    : Нет
Параметр GMC формата                     : Без точки перехода
Параметр матрицы формата                 : Выборочная
Идентификатор кодека                     : XVID
Идентификатор кодека/Подсказка           : XviD
Продолжительность                        : 1 ч. 23 м.
Битрейт                                  : 2308 Кбит/сек
Ширина                                   : 720 пикселей
Высота                                   : 432 пикселя
Соотношение сторон                       : 5:3
Частота кадров                           : 25,000 кадров/сек
Цветовое пространство                    : YUV
Субдискретизация насыщенности            : 4:2:0
Битовая глубина                          : 8 бит
Тип развёртки                            : Прогрессивная
Метод сжатия                             : С потерями
Бит/(Пиксели*Кадры)                      : 0.297
Размер потока                            : 1,34 Гбайт (92%)
Библиотека кодирования                   : XviD 1.2.1 (UTC 2008-12-04)
Аудио
Идентификатор                            : 1
Формат                                   : AC-3
Формат/Информация                        : Audio Coding 3
Идентификатор кодека                     : 2000
Продолжительность                        : 1 ч. 23 м.
Вид битрейта                             : Постоянный
Битрейт                                  : 192 Кбит/сек
Каналы                                   : 2 канала
Расположение каналов                     : Front: L R
Частота                                  : 48,0 КГц
Частота кадров                           : 31,250 кадров/сек (1536 SPF)
Битовая глубина                          : 16 бит
Метод сжатия                             : С потерями
Размер потока                            : 114 Мбайт (8%)
Выравнивание                             : Разделение по промежуткам
Продолжительность промежутка             : 40  мс. (1,00 видеокадр)
Время предзагрузки промежутка            : 500  мс.
ServiceKind/String                       : Complete Main[/spoiler]
[align=center][b]Скриншоты:[/b][/align][align=center]
[url=https://c.radikal.ru/c26/1802/93/ee9debd005a0.jpg][img]https://a.radikal.ru/a17/1802/2a/ad8a738ab453.png[/img][/url]  [url=https://d.radikal.ru/d32/1802/83/03a67509b00a.jpg][img]https://c.radikal.ru/c29/1802/de/bda1468b58ed.png[/img][/url]  [url=https://c.radikal.ru/c30/1802/18/2c80da0d9111.jpg][img]https://d.radikal.ru/d21/1802/e3/dbe72cc75fc6.png[/img][/url]  [url=https://c.radikal.ru/c37/1802/36/440b90832535.jpg][img]https://d.radikal.ru/d33/1802/ab/d0df566d6fa8.png[/img][/url][/align][/spoiler]
[spoiler="05.1963 - Живые и мертвые ... веселый солдат:"]
[align=center][color=#006699][size=20][b]Живые и мертвые (1963) HDTVRip[/b][/size][/color][/align][hr]
[img=right]https://c.radikal.ru/c28/1802/88/c56f8963a515.jpg[/img]
[b]Производство:[/b] СССР / Мосфильм
[b]Жанр:[/b] Военный, драма
[b]Режиссер:[/b] Александр Столпер
[b]Актеры:[/b] Олег Ефремов (I), Анатолий Папанов, Михаил Глузский, Кирилл Лавров, Михаил Ульянов, Виктор Авдюшко, Евгений Самойлов, Алексей Глазырин, Лев Любецкий,  Владимир Высоцкий ...[hr]
Журналиста Ивана Синцова известие о вероломном нападении нацистской Германии застает во время южного отпуска. Как фронтовой корреспондент он становится свидетелем тяжелых событий первых месяцев войны — многочисленных отступлений 1941 года...[hr]
[size=11][b]Возраст:[/b] [color=#006400][b]12+[/b] (зрителям, достигшим 12 лет)[/color][/size]
[b]Продолжительность:[/b] 03:07:12
[b]Качество видео:[/b] DVDRip
[b]Видео:[/b] XviD, 720x320 (2.25:1), 25.000 fps, 1 904 Kbps (0.331 bpp)
[b]Аудио:[/b] AC3, 2 ch, 192 Kbps
[spoiler="MediaInfo:"]
Общее
Полное имя                               : E:\Vysockij\05.1963 - Живые и мертвые ... веселый солдат\05 Живые и мертвые 1963 HDTVRip.avi
Формат                                   : AVI
Формат/Информация                        : Audio Video Interleave
Профиль формата                          : OpenDML
Размер файла                             : 2,76 Гбайт
Продолжительность                        : 3 ч. 7 м.
Общий поток                              : 2107 Кбит/сек
Программа кодирования                    : VirtualDubMod 1.5.10.3 (build 2550/release)
Библиотека кодирования                   : VirtualDubMod build 2550/release
Видео
Идентификатор                            : 0
Формат                                   : MPEG-4 Visual
Профиль формата                          : Advanced Simple@L5
Настройки формата                        : BVOP1
Параметр BVOP формата                    : 1
Параметр QPel формата                    : Нет
Параметр GMC формата                     : Без точки перехода
Параметр матрицы формата                 : Default (MPEG)
Идентификатор кодека                     : XVID
Идентификатор кодека/Подсказка           : XviD
Продолжительность                        : 3 ч. 7 м.
Битрейт                                  : 1904 Кбит/сек
Ширина                                   : 720 пикселей
Высота                                   : 320 пикселей
Соотношение сторон                       : 2,25:1
Частота кадров                           : 25,000 кадров/сек
Цветовое пространство                    : YUV
Субдискретизация насыщенности            : 4:2:0
Битовая глубина                          : 8 бит
Тип развёртки                            : Прогрессивная
Метод сжатия                             : С потерями
Бит/(Пиксели*Кадры)                      : 0.331
Размер потока                            : 2,49 Гбайт (90%)
Библиотека кодирования                   : XviD 67
Аудио
Идентификатор                            : 1
Формат                                   : AC-3
Формат/Информация                        : Audio Coding 3
Идентификатор кодека                     : 2000
Продолжительность                        : 3 ч. 7 м.
Вид битрейта                             : Постоянный
Битрейт                                  : 192 Кбит/сек
Каналы                                   : 2 канала
Расположение каналов                     : Front: L R
Частота                                  : 48,0 КГц
Частота кадров                           : 31,250 кадров/сек (1536 SPF)
Битовая глубина                          : 16 бит
Метод сжатия                             : С потерями
Размер потока                            : 257 Мбайт (9%)
Выравнивание                             : Разделение по промежуткам
Продолжительность промежутка             : 40  мс. (1,00 видеокадр)
Время предзагрузки промежутка            : 500  мс.
ServiceKind/String                       : Complete Main
Скриншоты:

06.1963 - Штрафной удар ... Юрий Никулин

Штрафной удар (1963) DVDRip- Производство: СССР / Киностудия им. М. Горького
Жанр: Комедия
Режиссер: Вениамин Дорман
Актеры: Михаил Пуговкин, Владимир Высоцкий, Лариса Лужина, Игорь Пушкарев, Владимир Трещалов, Лилиана Алешникова, Георгий Тусузов, Елена Понсова, Николай Сморчков, Юрий Медведев ...-Бывший руководитель животноводческого комплекса, получив задание поднять авторитет спорта на селе, смекнул, что добиться успеха можно очень быстро, если пригласить профессионалов выступить под вымышленными фамилиями на областной спартакиаде. Вся компания отправилась в путь. Дорожное знакомство с корреспонденткой газеты Людой Миловановой привело к тому, что скандала Кукушкину теперь не избежать.-Продолжительность: 01:27:28
Качество видео: DVDRip
Видео: XviD, 720x448 (1.607), 25.000 fps, 2 180 Kbps (0.270 bpp)
Аудио: AC3, 2 ch, 192 Kbps

MediaInfo:

Общее
Полное имя                               : E:\Vysockij\06.1963 - Штрафной удар ... Юрий Никулин\06 Штрафной удар 1963 DVDRip.avi
Формат                                   : AVI
Формат/Информация                        : Audio Video Interleave
Размер файла                             : 1,45 Гбайт
Продолжительность                        : 1 ч. 27 м.
Общий поток                              : 2381 Кбит/сек
Программа кодирования                    : VirtualDubMod 1.5.10.3 | www.virtualdub-fr.org || (build 2550/release)
Библиотека кодирования                   : VirtualDubMod build 2550/release
Видео
Идентификатор                            : 0
Формат                                   : MPEG-4 Visual
Профиль формата                          : Advanced Simple@L5
Настройки формата                        : BVOP1 / Custom Matrix
Параметр BVOP формата                    : 1
Параметр QPel формата                    : Нет
Параметр GMC формата                     : Без точки перехода
Параметр матрицы формата                 : Выборочная
Идентификатор кодека                     : XVID
Идентификатор кодека/Подсказка           : XviD
Продолжительность                        : 1 ч. 27 м.
Битрейт                                  : 2180 Кбит/сек
Ширина                                   : 720 пикселей
Высота                                   : 448 пикселей
Соотношение сторон                       : 16:10
Частота кадров                           : 25,000 кадров/сек
Цветовое пространство                    : YUV
Субдискретизация насыщенности            : 4:2:0
Битовая глубина                          : 8 бит
Тип развёртки                            : Прогрессивная
Метод сжатия                             : С потерями
Бит/(Пиксели*Кадры)                      : 0.270
Размер потока                            : 1,33 Гбайт (92%)
Библиотека кодирования                   : XviD 1.2.1 (UTC 2008-12-04)
Аудио
Идентификатор                            : 1
Формат                                   : AC-3
Формат/Информация                        : Audio Coding 3
Идентификатор кодека                     : 2000
Продолжительность                        : 1 ч. 27 м.
Вид битрейта                             : Постоянный
Битрейт                                  : 192 Кбит/сек
Каналы                                   : 2 канала
Расположение каналов                     : Front: L R
Частота                                  : 48,0 КГц
Частота кадров                           : 31,250 кадров/сек (1536 SPF)
Битовая глубина                          : 16 бит
Метод сжатия                             : С потерями
Размер потока                            : 120 Мбайт (8%)
Выравнивание                             : Разделение по промежуткам
Продолжительность промежутка             : 40  мс. (1,00 видеокадр)
Время предзагрузки промежутка            : 500  мс.
ServiceKind/String                       : Complete Main
Скриншоты:

07.1965 - Наш дом ... радиотехник

Наш дом (1965) DVDRip- Производство: СССР / Мосфильм
Жанр: Драма
Режиссер: Василий Пронин
Актеры: Анатолий Папанов, Нина Сазонова, Иван Лапиков, Вадим Бероев, Алексей Локтев, Геннадий Бортников, Александр Сесин, Нелли Корниенко, Юрий Кузьменков, Владимир Высоцкий ...-Четыре сына выросли в доме Ивановых. И вот для трех старших настала пора начинать самостоятельную жизнь, покидать родное гнездо. Казалось бы, обычное дело - но как трудно родителям сжиться с их уходом, сколько драматических ситуаций возникает в семье в это время, сколько рождается глубоких переживаний - особенно в душе младшего сына, тринадцатилетнего Сергея.-Возраст: 6+ (зрителям, достигшим 6 лет)
Продолжительность: 01:32:51
Качество видео: DVDRip
Видео: XviD, 720x384 (1.875), 25.000 fps, 2 041 Kbps (0.295 bpp)
Аудио: AC3, 2 ch, 192 Kbps

MediaInfo:

Общее
Полное имя                               : E:\Vysockij\07.1965 - Наш дом ... радиотехник\07 Наш дом 1965 DVDRip.avi
Формат                                   : AVI
Формат/Информация                        : Audio Video Interleave
Размер файла                             : 1,45 Гбайт
Продолжительность                        : 1 ч. 32 м.
Общий поток                              : 2242 Кбит/сек
Программа кодирования                    : VirtualDubMod 1.5.10.3 | www.virtualdub-fr.org || (build 2550/release)
Библиотека кодирования                   : VirtualDubMod build 2550/release
Видео
Идентификатор                            : 0
Формат                                   : MPEG-4 Visual
Профиль формата                          : Advanced Simple@L5
Настройки формата                        : BVOP1 / Custom Matrix
Параметр BVOP формата                    : 1
Параметр QPel формата                    : Нет
Параметр GMC формата                     : Без точки перехода
Параметр матрицы формата                 : Выборочная
Идентификатор кодека                     : XVID
Идентификатор кодека/Подсказка           : XviD
Продолжительность                        : 1 ч. 32 м.
Битрейт                                  : 2041 Кбит/сек
Ширина                                   : 720 пикселей
Высота                                   : 384 пикселя
Соотношение сторон                       : 1,85:1
Частота кадров                           : 25,000 кадров/сек
Цветовое пространство                    : YUV
Субдискретизация насыщенности            : 4:2:0
Битовая глубина                          : 8 бит
Тип развёртки                            : Прогрессивная
Метод сжатия                             : С потерями
Бит/(Пиксели*Кадры)                      : 0.295
Размер потока                            : 1,32 Гбайт (91%)
Библиотека кодирования                   : XviD 1.2.1 (UTC 2008-12-04)
Аудио
Идентификатор                            : 1
Формат                                   : AC-3
Формат/Информация                        : Audio Coding 3
Идентификатор кодека                     : 2000
Продолжительность                        : 1 ч. 32 м.
Вид битрейта                             : Постоянный
Битрейт                                  : 192 Кбит/сек
Каналы                                   : 2 канала
Расположение каналов                     : Front: L R
Частота                                  : 48,0 КГц
Частота кадров                           : 31,250 кадров/сек (1536 SPF)
Битовая глубина                          : 16 бит
Метод сжатия                             : С потерями
Размер потока                            : 128 Мбайт (9%)
Выравнивание                             : Разделение по промежуткам
Продолжительность промежутка             : 40  мс. (1,00 видеокадр)
Время предзагрузки промежутка            : 500  мс.
ServiceKind/String                       : Complete Main
Скриншоты:

08.1965 - На завтрашней улице ... Петр Маркин

На завтрашней улице (1965) SATRip- Производство: СССР / Мосфильм
Жанр: Драма
Режиссер: Фёдор Филиппов
Актеры: Алевтина Румянцева, Вера Васильева, Екатерина Васильева (I), Владимир Высоцкий, Савелий Крамаров, Люсьена Овчинникова, Владимир Самойлов (I), Евгений Тетерин, Иван Кузнецов, Геннадий Ялович ...-На стройку крупной сибирской электростанции приезжает новый парторг Большаков, старый знакомый начальника строительства Платонова. У главного инженера Толстопятова, работящего, отзывчивого, но во многом рискованного специалиста, давно идут споры с Платоновым по принципиальным позициям. Вникнув в проблемы и нужды строителей, Большаков оказывается на стороне главного инженера. Аварийная ситуация, возникшая на стройке из-за резкого поднятия воды в реке, решает спор трёх руководителей. Уехав по вызову в министерство, Платонов назначает своим заместителем Толстопятова.-Продолжительность: 01:34:52
Качество видео: DVDRip
Видео: XviD, 720x432 (1.667), 25.000 fps, 1 997 Kbps (0.257 bpp)
Аудио: AC3, 2 ch, 192 Kbps

MediaInfo:

Общее
Полное имя                               : E:\Vysockij\08.1965 - На завтрашней улице ... Петр Маркин\08 На завтрашней улице 1965 SATRip.avi
Формат                                   : AVI
Формат/Информация                        : Audio Video Interleave
Размер файла                             : 1,46 Гбайт
Продолжительность                        : 1 ч. 34 м.
Общий поток                              : 2199 Кбит/сек
Программа кодирования                    : VirtualDubMod 1.5.10.3 | www.virtualdub-fr.org || (build 2550/release)
Библиотека кодирования                   : VirtualDubMod build 2550/release
Видео
Идентификатор                            : 0
Формат                                   : MPEG-4 Visual
Профиль формата                          : Advanced Simple@L5
Настройки формата                        : BVOP1 / Custom Matrix
Параметр BVOP формата                    : 1
Параметр QPel формата                    : Нет
Параметр GMC формата                     : Без точки перехода
Параметр матрицы формата                 : Выборочная
Идентификатор кодека                     : XVID
Идентификатор кодека/Подсказка           : XviD
Продолжительность                        : 1 ч. 34 м.
Битрейт                                  : 1997 Кбит/сек
Ширина                                   : 720 пикселей
Высота                                   : 432 пикселя
Соотношение сторон                       : 5:3
Частота кадров                           : 25,000 кадров/сек
Цветовое пространство                    : YUV
Субдискретизация насыщенности            : 4:2:0
Битовая глубина                          : 8 бит
Тип развёртки                            : Прогрессивная
Метод сжатия                             : С потерями
Бит/(Пиксели*Кадры)                      : 0.257
Размер потока                            : 1,32 Гбайт (91%)
Библиотека кодирования                   : XviD 1.2.1 (UTC 2008-12-04)
Аудио
Идентификатор                            : 1
Формат                                   : AC-3
Формат/Информация                        : Audio Coding 3
Идентификатор кодека                     : 2000
Продолжительность                        : 1 ч. 34 м.
Вид битрейта                             : Постоянный
Битрейт                                  : 192 Кбит/сек
Каналы                                   : 2 канала
Расположение каналов                     : Front: L R
Частота                                  : 48,0 КГц
Частота кадров                           : 31,250 кадров/сек (1536 SPF)
Битовая глубина                          : 16 бит
Метод сжатия                             : С потерями
Размер потока                            : 130 Мбайт (9%)
Выравнивание                             : Разделение по промежуткам
Продолжительность промежутка             : 40  мс. (1,00 видеокадр)
Время предзагрузки промежутка            : 500  мс.
ServiceKind/String                       : Complete Main
Скриншоты:

09.1965 - Стряпуха ... Андрей Пчёлка

Стряпуха (1965) HDTVRip- Производство: СССР / Мосфильм, Первое творческое объединение
Жанр: Мелодрама, комедия
Режиссер: Эдмонд Кеосаян
Актеры: Светлана Светличная, Людмила Хитяева, Инна Чурикова, Константин Сорокин, Георгий Юматов, Иван Савкин, Людмила Марченко, Владимир Высоцкий, Зоя Фёдорова, Сергей Филиппов ...-Однажды незадачливый ухажер - комбайнер Степан Казанец - все-таки получил по голове половником. А красивая казачка Павлина Хуторная после скандальной истории, ставшей известной на весь район, покинула станицу Каневскую и устроилась на полевом стане стряпухой. Казанец не м


Последний раз редактировалось: dybrik13 (2018-07-14 22:03), всего редактировалось 3 раз(а)

dybrik13 ®

Пол: Мужской

Стаж: 4 месяца 25 дней

Сообщений: 738

Репутация: 8285

[+] [-]

Откуда: Киев



Награды: 6 (Подробнее)

500 messages (Количество: 1) 500 releases (Количество: 1) Active moderator (Количество: 1)

Вне форума

[Профиль] [ЛС]

Создавать темы 14-Июл-2018 22:54 (спустя 1 час 17 минут)

[Цитировать]

14.1967 - Короткие встречи ... Максим, геолог:

Короткие встречи (1967) DVDRip- Производство: СССР / Одесская киностудия
Жанр: Драма
Режиссер: Кира Муратова
Актеры: Владимир Высоцкий, Нина Русланова, Кира Муратова, Лидия Базильская, Валерий Исаков, Ольга Викландт, Алексей Глазырин, Светлана Немоляева, Татьяна Медная, Григорий Коган-Покинув родное село, Надя вместе с подругой едет в большой город. По пути девушка устраивается на работу в чайную и знакомится с Максимом — молодым геологом, человеком талантливым и образованным.
В общем, он обладал всеми достоинствами, которые необходимы в подобных ситуациях, но… у него была любимая женщина, которая жила в городе и ждала его в своем доме. В этот самый дом и приезжает влюбленная, разыскивающая Максима Надя. Так случилось непредвиденное ...-Возраст: 12+ (зрителям, достигшим 12 лет)
Продолжительность: 01:31:34
Качество видео: DVDRip
Видео: XviD, 720x440 (1.636), 25.000 fps, 2 077 Kbps (0.262 bpp)
Аудио: AC3, 2 ch, 192 Kbps

MediaInfo:

Общее
Полное имя : E:\Vysockij\14.1967 - Короткие встречи ... Максим, геолог\14 Короткие встречи 1967 DVDRip.avi
Формат : AVI
Формат/Информация : Audio Video Interleave
Размер файла : 1,46 Гбайт
Продолжительность : 1 ч. 31 м.
Общий поток : 2278 Кбит/сек
Программа кодирования : VirtualDubMod 1.5.10.3 | www.virtualdub-fr.org || (build 2550/release)
Библиотека кодирования : VirtualDubMod build 2550/release
Видео
Идентификатор : 0
Формат : MPEG-4 Visual
Профиль формата : Advanced Simple@L5
Настройки формата : BVOP1 / Custom Matrix
Параметр BVOP формата : 1
Параметр QPel формата : Нет
Параметр GMC формата : Без точки перехода
Параметр матрицы формата : Выборочная
Идентификатор кодека : XVID
Идентификатор кодека/Подсказка : XviD
Продолжительность : 1 ч. 31 м.
Битрейт : 2077 Кбит/сек
Ширина : 720 пикселей
Высота : 440 пикселей
Соотношение сторон : 16:10
Частота кадров : 25,000 кадров/сек
Цветовое пространство : YUV
Субдискретизация насыщенности : 4:2:0
Битовая глубина : 8 бит
Тип развёртки : Прогрессивная
Метод сжатия : С потерями
Бит/(Пиксели*Кадры) : 0.262
Размер потока : 1,33 Гбайт (91%)
Библиотека кодирования : XviD 1.2.1 (UTC 2008-12-04)
Аудио
Идентификатор : 1
Формат : AC-3
Формат/Информация : Audio Coding 3
Идентификатор кодека : 2000
Продолжительность : 1 ч. 31 м.
Вид битрейта : Постоянный
Битрейт : 192 Кбит/сек
Каналы : 2 канала
Расположение каналов : Front: L R
Частота : 48,0 КГц
Частота кадров : 31,250 кадров/сек (1536 SPF)
Битовая глубина : 16 бит
Метод сжатия : С потерями
Размер потока : 126 Мбайт (8%)
Выравнивание : Разделение по промежуткам
Продолжительность промежутка : 40 мс. (1,00 видеокадр)
Время предзагрузки промежутка : 500 мс.
ServiceKind/String : Complete Main
Скриншоты:

15.1968 - Интервенция ... Мишель Воронов (Бродский):

Интервенция (1968) DVDRip- Производство: СССР / Ленфильм
Жанр: Драма, комедия, экранизация
Режиссер: Геннадий Полока
Актеры: Владимир Высоцкий, Юлия Бурыгина, Юрий Толубеев, Ефим Копелян, Сергей Юрский, Ольга Аросева, Валерий Золотухин, Руфина Нифонтова, Гелена Ивлиева, Владимир Татосов-Фильм созданный по пьесе Л. Славина и долгое время находившийся под цензурным запретом. Единственная в советском кинематографе эксцентрическая комедия в стиле «буфф», повествующая о многоликой жизни Одессы, оккупированной войсками Антанты.-Возраст: 12+ (зрителям, достигшим 12 лет)
Продолжительность: 01:41:30
Качество видео: DVDRip
Видео: XviD, 720x448 (1.607), 25.000 fps, 1 855 Kbps (0.230 bpp)
Аудио: AC3, 6 ch, 192 Kbps

MediaInfo:

Общее
Полное имя : E:\Vysockij\15.1968 - Интервенция ... Мишель Воронов (Бродский)\15 Интервенция 1968 DVDRip.avi
Формат : AVI
Формат/Информация : Audio Video Interleave
Размер файла : 1,46 Гбайт
Продолжительность : 1 ч. 41 м.
Общий поток : 2056 Кбит/сек
Программа кодирования : VirtualDubMod 1.5.10.3 | www.virtualdub-fr.org || (build 2550/release)
Библиотека кодирования : VirtualDubMod build 2550/release
Видео
Идентификатор : 0
Формат : MPEG-4 Visual
Профиль формата : Advanced Simple@L5
Настройки формата : BVOP1 / Custom Matrix
Параметр BVOP формата : 1
Параметр QPel формата : Нет
Параметр GMC формата : Без точки перехода
Параметр матрицы формата : Выборочная
Идентификатор кодека : XVID
Идентификатор кодека/Подсказка : XviD
Продолжительность : 1 ч. 41 м.
Битрейт : 1855 Кбит/сек
Ширина : 720 пикселей
Высота : 448 пикселей
Соотношение сторон : 16:10
Частота кадров : 25,000 кадров/сек
Цветовое пространство : YUV
Субдискретизация насыщенности : 4:2:0
Битовая глубина : 8 бит
Тип развёртки : Прогрессивная
Метод сжатия : С потерями
Бит/(Пиксели*Кадры) : 0.230
Размер потока : 1,32 Гбайт (90%)
Библиотека кодирования : XviD 1.2.1 (UTC 2008-12-04)
Аудио
Идентификатор : 1
Формат : AC-3
Формат/Информация : Audio Coding 3
Идентификатор кодека : 2000
Продолжительность : 1 ч. 41 м.
Вид битрейта : Постоянный
Битрейт : 192 Кбит/сек
Каналы : 6 каналов
Расположение каналов : Front: L C R, Side: L R, LFE
Частота : 48,0 КГц
Частота кадров : 31,250 кадров/сек (1536 SPF)
Битовая глубина : 16 бит
Метод сжатия : С потерями
Размер потока : 139 Мбайт (9%)
Выравнивание : Разделение по промежуткам
Продолжительность промежутка : 40 мс. (1,00 видеокадр)
Время предзагрузки промежутка : 500 мс.
ServiceKind/String : Complete Main
Скриншоты:

16.1968 - Служили два товарища ... поручик Брусенцов:

Служили два товарища (1968) DVDRip- Производство: СССР / Мосфильм
Жанр: Драма, комедия, военный
Режиссер: Евгений Карелов
Актеры: Олег Янковский, Ролан Быков, Анатолий Папанов, Николай Крючков, Алла Демидова, Владимир Высоцкий, Ия Саввина, Николай Бурляев, Пётр Крылов, Ростислав Янковский-Главные персонажи этой истории времен гражданской войны — красноармеец Некрасов, по приказу ставший фронтовым кинооператором, и его помощник Карякин, бывший командир роты, бдительно опекающий беспомощного и, по его мнению, не вполне надежного «фотографа». В конце концов отчаянный спорщик Карякин полюбит фронтового товарища — да только от вражеской пули не сможет уберечь…-Возраст: 12+ (зрителям, достигшим 12 лет)
Продолжительность: 01:33:00
Качество видео: DVDRip
Видео: XviD, 720x304 (2.35:1), 25.000 fps, 2 400 Kbps (0.439 bpp)
Аудио #1: AC3, 6 ch, 448 Kbps
Аудио #2: AC3, 1 ch, 448 Kbps

MediaInfo:

Общее
Полное имя : E:\Vysockij\16.1968 - Служили два товарища ... поручик Брусенцов\16 Служили два товарища 1968 DVDRip.avi
Формат : AVI
Формат/Информация : Audio Video Interleave
Профиль формата : OpenDML
Размер файла : 2,15 Гбайт
Продолжительность : 1 ч. 33 м.
Общий поток : 3314 Кбит/сек
Программа кодирования : VirtualDubMod 1.5.10.3 | www.virtualdub-fr.org || (build 2550/release)
Библиотека кодирования : VirtualDubMod build 2550/release
Видео
Идентификатор : 0
Формат : MPEG-4 Visual
Профиль формата : Advanced Simple@L5
Настройки формата : BVOP2 / Custom Matrix
Параметр BVOP формата : 2
Параметр QPel формата : Нет
Параметр GMC формата : Без точки перехода
Параметр матрицы формата : Выборочная
Идентификатор кодека : XVID
Идентификатор кодека/Подсказка : XviD
Продолжительность : 1 ч. 33 м.
Битрейт : 2400 Кбит/сек
Ширина : 720 пикселей
Высота : 304 пикселя
Соотношение сторон : 2,35:1
Частота кадров : 25,000 кадров/сек
Цветовое пространство : YUV
Субдискретизация насыщенности : 4:2:0
Битовая глубина : 8 бит
Тип развёртки : Прогрессивная
Метод сжатия : С потерями
Бит/(Пиксели*Кадры) : 0.439
Размер потока : 1,56 Гбайт (72%)
Библиотека кодирования : XviD 64
Аудио #1
Идентификатор : 1
Формат : AC-3
Формат/Информация : Audio Coding 3
Идентификатор кодека : 2000
Продолжительность : 1 ч. 32 м.
Вид битрейта : Постоянный
Битрейт : 448 Кбит/сек
Каналы : 6 каналов
Расположение каналов : Front: L C R, Side: L R, LFE
Частота : 48,0 КГц
Частота кадров : 31,250 кадров/сек (1536 SPF)
Битовая глубина : 16 бит
Метод сжатия : С потерями
Размер потока : 298 Мбайт (14%)
Выравнивание : Разделение по промежуткам
Продолжительность промежутка : 40 мс. (1,00 видеокадр)
Время предзагрузки промежутка : 500 мс.
ServiceKind/String : Complete Main
Аудио #2
Идентификатор : 2
Формат : AC-3
Формат/Информация : Audio Coding 3
Идентификатор кодека : 2000
Продолжительность : 1 ч. 32 м.
Вид битрейта : Постоянный
Битрейт : 448 Кбит/сек
Каналы : 1 канал
Расположение каналов : Front: C
Частота : 48,0 КГц
Частота кадров : 31,250 кадров/сек (1536 SPF)
Битовая глубина : 16 бит
Метод сжатия : С потерями
Размер потока : 298 Мбайт (14%)
Выравнивание : Разделение по промежуткам
Продолжительность промежутка : 40 мс. (1,00 видеокадр)
Время предзагрузки промежутка : 500 мс.
ServiceKind/String : Complete Main
Скриншоты:

17.1968 - Хозяин тайги ... бригадир Рябой:

Хозяин тайги (1968) DVDRip- Производство: СССР / Мосфильм
Жанр: Криминальная драма, детектив
Режиссер: Владимир Назаров
Актеры: Валерий Золотухин, Владимир Высоцкий, Лионелла Пырьева, Михаил Кокшенов, Дмитрий Масанов, Леонид Кмит, Эдуард Бредун, Иван Косых, Павел Шпрингфельд, Владимир Липпарт-В таежном поселке, где каждый на виду, происходит почти невероятное — ограблен местный магазин. Во взломе признается один из сплавщиков леса. Но молодому участковому не дают покоя кое-какие «нестыковки». И в конце концов он выходит на след подлинных участников преступления…-Возраст: 0+ (для любой зрительской аудитории)
Продолжительность: 01:18:19
Качество видео: DVDRip
Видео: DivX 5, 704x304 (2.35:1), 25.000 fps, 2 399 Kbps (0.448 bpp)
Аудио: AC3, 2 ch, 192 Kbps

MediaInfo:

Общее
Полное имя : E:\Vysockij\17.1968 - Хозяин тайги ... бригадир Рябой\17 Хозяин тайги 1968 DVDRip.avi
Формат : AVI
Формат/Информация : Audio Video Interleave
Размер файла : 1,42 Гбайт
Продолжительность : 1 ч. 18 м.
Общий поток : 2601 Кбит/сек
Программа кодирования : VirtualDubMod 1.5.10.3 | www.virtualdub-fr.org || (build 2550/release)
Библиотека кодирования : VirtualDubMod build 2550/release
Видео
Идентификатор : 0
Формат : MPEG-4 Visual
Профиль формата : Advanced Simple@L5
Настройки формата : BVOP1 / Custom Matrix
Параметр BVOP формата : 1
Параметр QPel формата : Нет
Параметр GMC формата : Без точки перехода
Параметр матрицы формата : Выборочная
Идентификатор кодека : DX50
Идентификатор кодека/Подсказка : DivX 5
Продолжительность : 1 ч. 18 м.
Битрейт : 2399 Кбит/сек
Ширина : 704 пикселя
Высота : 304 пикселя
Соотношение сторон : 2,35:1
Частота кадров : 25,000 кадров/сек
Цветовое пространство : YUV
Субдискретизация насыщенности : 4:2:0
Битовая глубина : 8 бит
Тип развёртки : Прогрессивная
Метод сжатия : С потерями
Бит/(Пиксели*Кадры) : 0.448
Размер потока : 1,31 Гбайт (92%)
Библиотека кодирования : XviD 73
Аудио
Идентификатор : 1
Формат : AC-3
Формат/Информация : Audio Coding 3
Идентификатор кодека : 2000
Продолжительность : 1 ч. 18 м.
Вид битрейта : Постоянный
Битрейт : 192 Кбит/сек
Каналы : 2 канала
Расположение каналов : Front: L R
Частота : 48,0 КГц
Частота кадров : 31,250 кадров/сек (1536 SPF)
Битовая глубина : 16 бит
Метод сжатия : С потерями
Размер потока : 108 Мбайт (7%)
Выравнивание : Разделение по промежуткам
Продолжительность промежутка : 40 мс. (1,00 видеокадр)
Время предзагрузки промежутка : 500 мс.
ServiceKind/String : Complete Main[/pre]
[brc]Скриншоты:

18.1969 - Опасные гастроли ... Жорж Бенгальский, Николай Коваленко:

Опасные гастроли (1969) SATRip- Производство: СССР / Одесская киностудия
Жанр: Приключения, история, боевик
Режиссер: Георгий Юнгвальд-Хилькевич
Актеры: Владимир Высоцкий, Георгий Юматов, Ефим Копелян, Лионелла Пырьева, Николай Федорцов, Владимир Шубарин, Рада Волшанинова, Николай Волшанинов, Эльвира Бруновская, Леонид Кмит-1910 год. Одесса. Некий француз, виконт де Кордель, с дозволения губернатора и «отцов» города организует театр-кабаре. В нем выступают эстрадные артисты: куплетист Бенгальский, очаровательная танцовщица, цыганский дуэт и, конечно же, кордебалет.
Однако на самом деле это шикарное заведение создано… большевиками. Для конспирации: революционная работа целой группы подпольщиков под носом у врага с такой ширмой, как это кабаре, — лучше и не придумать!-Возраст: 6+ (зрителям, достигшим 6 лет)
Продолжительность: 01:22:37
Качество видео: DVDRip
Видео: XviD, 704x336 (2.095), 25.000 fps, 2 318 Kbps (0.392 bpp)
Аудио: AC3, 2 ch, 192 Kbps

MediaInfo:

Общее
Полное имя : E:\Vysockij\18.1969 - Опасные гастроли ... Жорж Бенгальский, Николай Коваленко\18 Опасные гастроли 1969 SATRip.avi
Формат : AVI
Формат/Информация : Audio Video Interleave
Размер файла : 1,45 Гбайт
Продолжительность : 1 ч. 22 м.
Общий поток : 2520 Кбит/сек
Режиссёр : bm11
Программа кодирования : VirtualDubMod 1.5.10.3 | www.virtualdub-fr.org || (build 2550/release)
Видео
Идентификатор : 0
Формат : MPEG-4 Visual
Профиль формата : Advanced Simple@L5
Настройки формата : BVOP1 / Custom Matrix
Параметр BVOP формата : 1
Параметр QPel формата : Нет
Параметр GMC формата : Без точки перехода
Параметр матрицы формата : Выборочная
Идентификатор кодека : XVID
Идентификатор кодека/Подсказка : XviD
Продолжительность : 1 ч. 22 м.
Битрейт : 2318 Кбит/сек
Ширина : 704 пикселя
Высота : 336 пикселей
Соотношение сторон : 2,095
Частота кадров : 25,000 кадров/сек
Цветовое пространство : YUV
Субдискретизация насыщенности : 4:2:0
Битовая глубина : 8 бит
Тип развёртки : Прогрессивная
Метод сжатия : С потерями
Бит/(Пиксели*Кадры) : 0.392
Размер потока : 1,34 Гбайт (92%)
Библиотека кодирования : XviD 73
Аудио
Идентификатор : 1
Формат : AC-3
Формат/Информация : Audio Coding 3
Идентификатор кодека : 2000
Продолжительность : 1 ч. 22 м.
Вид битрейта : Постоянный
Битрейт : 192 Кбит/сек
Каналы : 2 канала
Расположение каналов : Front: L R
Частота : 48,0 КГц
Частота кадров : 31,250 кадров/сек (1536 SPF)
Битовая глубина : 16 бит
Метод сжатия : С потерями
Размер потока : 113 Мбайт (8%)
Выравнивание : Разделение по промежуткам
Продолжительность промежутка : 40 мс. (1,00 видеокадр)
Время предзагрузки промежутка : 500 мс.
ServiceKind/String : Complete Main
Скриншоты:

19.1971 - Белый взрыв ... капитан:

Белый взрыв (1971) DVDRip- Производство: СССР / Одесская киностудия
Жанр: Боевик, военный, приключения
Режиссер: Станислав Говорухин
Актеры: Армен Джигарханян, Людмила Гурченко, Сергей Никоненко, Анатолий Игнатьев, Фёдор Одиноков, Бухути Закариадзе, Степан Крылов, Николай Федорцов, Владимир Высоцкий, Николай Иванов-Приключенческий фильм о подвиге советских солдат-альпинистов. В 1942 году, во время Великой Отечественной войны, альпинисты ценою своей жизни спасли мирных жителей предгорий Кавказа и обеспечили успех нашим войскам.-Возраст: 0+ (для любой зрительской аудитории)
Продолжительность: 01:10:50
Качество видео: DVDRip
Видео: XviD, 720x400 (16:9), 25.000 fps, 2 732 Kbps (0.379 bpp)
Аудио: AC3, 2 ch, 192 Kbps

MediaInfo:

Общее
Полное имя : E:\Vysockij\19.1971 - Белый взрыв ... капитан\19 Белый взрыв 1971 DVDRip.avi
Формат : AVI
Формат/Информация : Audio Video Interleave
Размер файла : 1,45 Гбайт
Продолжительность : 1 ч. 10 м.
Общий поток : 2934 Кбит/сек
Программа кодирования : VirtualDubMod 1.5.10.3 | www.virtualdub-fr.org || (build 2550/release)
Библиотека кодирования : VirtualDubMod build 2550/release
Видео
Идентификатор : 0
Формат : MPEG-4 Visual
Профиль формата : Advanced Simple@L5
Настройки формата : BVOP1 / Custom Matrix
Параметр BVOP формата : 1
Параметр QPel формата : Нет
Параметр GMC формата : Без точки перехода
Параметр матрицы формата : Выборочная
Идентификатор кодека : XVID
Идентификатор кодека/Подсказка : XviD
Продолжительность : 1 ч. 10 м.
Битрейт : 2732 Кбит/сек
Ширина : 720 пикселей
Высота : 400 пикселей
Соотношение сторон : 16:9
Частота кадров : 25,000 кадров/сек
Цветовое пространство : YUV
Субдискретизация насыщенности : 4:2:0
Битовая глубина : 8 бит
Тип развёртки : Прогрессивная
Метод сжатия : С потерями
Бит/(Пиксели*Кадры) : 0.379
Размер потока : 1,35 Гбайт (93%)
Библиотека кодирования : XviD 1.2.1 (UTC 2008-12-04)
Аудио
Идентификатор : 1
Формат : AC-3
Формат/Информация : Audio Coding 3
Идентификатор кодека : 2000
Продолжительность : 1 ч. 10 м.
Вид битрейта : Постоянный
Битрейт : 192 Кбит/сек
Каналы : 2 канала
Расположение каналов : Front: L R
Частота : 48,0 КГц
Частота кадров : 31,250 кадров/сек (1536 SPF)
Битовая глубина : 16 бит
Метод сжатия : С потерями
Размер потока : 97,2 Мбайт (7%)
Выравнивание : Разделение по промежуткам
Продолжительность промежутка : 40 мс. (1,00 видеокадр)
Время предзагрузки промежутка : 500 мс.
ServiceKind/String : Complete Main
Скриншоты:

20.1972 - Четвертый ... Он:

Четвертый (1972) DVDRip- Производство: СССР / Мосфильм
Жанр: Драма, экранизация
Режиссер: Александр Столпер
Актеры: Владимир Высоцкий, Маргарита Терехова, Сергей Шакуров, Александр Кайдановский, Сергей Сазонтьев, Юрий Соломин, Татьяна Васильева (I), Марис Лиепа, Армен Джигарханян, Юозас Будрайтис-По одноименной пьесе Константина Симонова. Американский журналист волей обстоятельств поставлен перед выбором: предать огласке преступные планы сторонников войны, рискуя при этом лишиться всех жизненных благ, которых он добился за последние годы, или отступить.-Возраст: 12+ (зрителям, достигшим 12 лет)
Продолжительность: 01:07:16
Качество видео: DVDRip
Видео: XviD, 720x304 (2.35:1), 25.000 fps, 2 896 Kbps (0.529 bpp)
Аудио: AC3, 2 ch, 192 Kbps

MediaInfo:

Общее
Полное имя : E:\Vysockij\20.1972 - Четвертый ... Он\20 Четвертый 1972 DVDRip.avi
Формат : AVI
Формат/Информация : Audio Video Interleave
Размер файла : 1,46 Гбайт
Продолжительность : 1 ч. 7 м.
Общий поток : 3098 Кбит/сек
Программа кодирования : VirtualDubMod 1.5.10.3 | www.virtualdub-fr.org || (build 2550/release)
Библиотека кодирования : VirtualDubMod build 2550/release
Видео
Идентификатор : 0
Формат : MPEG-4 Visual
Профиль формата : Advanced Simple@L5
Настройки формата : BVOP1 / Custom Matrix
Параметр BVOP формата : 1
Параметр QPel формата : Нет
Параметр GMC формата : Без точки перехода
Параметр матрицы формата : Выборочная
Идентификатор кодека : XVID
Идентификатор кодека/Подсказка : XviD
Продолжительность : 1 ч. 7 м.
Битрейт : 2896 Кбит/сек
Ширина : 720 пикселей
Высота : 304 пикселя
Соотношение сторон : 2,35:1
Частота кадров : 25,000 кадров/сек
Цветовое пространство : YUV
Субдискретизация насыщенности : 4:2:0
Битовая глубина : 8 бит
Тип развёртки : Прогрессивная
Метод сжатия : С потерями
Бит/(Пиксели*Кадры) : 0.529
Размер потока : 1,36 Гбайт (93%)
Библиотека кодирования : XviD 1.2.1 (UTC 2008-12-04)
Аудио
Идентификатор : 1
Формат : AC-3
Формат/Информация : Audio Coding 3
Идентификатор кодека : 2000
Продолжительность : 1 ч. 7 м.
Вид битрейта : Постоянный
Битрейт : 192 Кбит/сек
Каналы : 2 канала
Расположение каналов : Front: L R
Частота : 48,0 КГц
Частота кадров : 31,250 кадров/сек (1536 SPF)
Битовая глубина : 16 бит
Метод сжатия : С потерями
Размер потока : 92,4 Мбайт (6%)
Выравнивание : Разделение по промежуткам
Продолжительность промежутка : 40 мс. (1,00 видеокадр)
Время предзагрузки промежутка : 500 мс.
ServiceKind/String : Complete Main
Скриншоты:

21.1973 - Плохой хороший человек ... Фон Корен:

Плохой хороший человек (1973) DVDRip- Производство: СССР / Ленфильм
Жанр: Драма, история, экранизация
Режиссер: Иосиф Хейфиц
Актеры: Олег Даль, Владимир Высоцкий, Людмила Максакова, Анатолий Папанов, Георгий Корольчук, Анатолий Азо, Ашот Меликджанян, Любовь Малиновская, Юрий Медведев, Андрей Апсолон-По повести А. Чехова "Дуэль". Мучимый никчемностью и скукой жизни, чиновник Лаевский жаждет любой ценой разорвать порочный круг своего существования. Его нравственный антипод, натуралист Фон Корен, уверен, что люди, подобные Лаевскому, достойны уничтожения. Но, вопреки желаниям и воле героев, провидение по-своему распоряжается их судьбами…-Продолжительность: 01:34:18
Качество видео: DVDRip
Видео: XviD, 720x320 (2.25:1), 25.000 fps, 1 995 Kbps (0.346 bpp)
Аудио: AC3, 6 ch, 448 Kbps

MediaInfo:

Общее
Полное имя : E:\Vysockij\21.1973 - Плохой хороший человек ... Фон Корен\21 Плохой, хороший человек 1973 DVDRip.avi
Формат : AVI
Формат/Информация : Audio Video Interleave
Размер файла : 1,62 Гбайт
Продолжительность : 1 ч. 34 м.
Общий поток : 2453 Кбит/сек
Программа кодирования : VirtualDubModRus 1.5.10.2 (build 2542/release)
Библиотека кодирования : VirtualDubMod build 2542/release
Видео
Идентификатор : 0
Формат : MPEG-4 Visual
Профиль формата : Advanced Simple@L5
Настройки формата : BVOP2
Параметр BVOP формата : 2
Параметр QPel формата : Нет
Параметр GMC формата : Без точки перехода
Параметр матрицы формата : Default (H.263)
Режим смешивания : Сжатый битовый поток
Идентификатор кодека : XVID
Идентификатор кодека/Подсказка : XviD
Продолжительность : 1 ч. 34 м.
Битрейт : 1995 Кбит/сек
Ширина : 720 пикселей
Высота : 320 пикселей
Соотношение сторон : 2,25:1
Частота кадров : 25,000 кадров/сек
Цветовое пространство : YUV
Субдискретизация насыщенности : 4:2:0
Битовая глубина : 8 бит
Тип развёртки : Прогрессивная
Метод сжатия : С потерями
Бит/(Пиксели*Кадры) : 0.346
Размер потока : 1,31 Гбайт (81%)
Библиотека кодирования : XviD 1.2.1 (UTC 2008-12-04)
Аудио
Идентификатор : 1
Формат : AC-3
Формат/Информация : Audio Coding 3
Идентификатор кодека : 2000
Продолжительность : 1 ч. 34 м.
Вид битрейта : Постоянный
Битрейт : 448 Кбит/сек
Каналы : 6 каналов
Расположение каналов : Front: L C R, Side: L R, LFE
Частота : 48,0 КГц
Частота кадров : 31,250 кадров/сек (1536 SPF)
Битовая глубина : 16 бит
Метод сжатия : С потерями
Размер потока : 302 Мбайт (18%)
Выравнивание : Разделение по промежуткам
Продолжительность промежутка : 40 мс. (1,00 видеокадр)
Время предзагрузки промежутка : 500 мс.
ServiceKind/String : Complete Main
Скриншоты:

22.1974 - Единственная дорога ... Солодов, один из шофёров:

Единственная дорога (1974) DVDRip- Производство: СССР, Югославия / Мосфильм, Zeta Film
Жанр: Приключения, военный, история, драма
Режиссер: Владимир Павлович
Актеры: Татьяна Сидоренко, Велько Мандич, Александр Аржиловский, Лев Дуров, Глеб Стриженов, Анатолий Кузнецов, Душан Яничеевич, Владимир Высоцкий, Владимир Пучков, Владимир Кашпур-Приключенческий кинофильм. 1944 год. По дорогам Югославии движется необычная автоколонна — за рулем бензовозов сидят попавшие в немецкий плен советские солдаты. Этим коварным замыслом гитлеровцы решили обезопасить себя от нападения партизан. Но стратегический груз, несмотря на все меры предосторожности немцев, не будет доставлен к месту назначения…-Возраст: 12+ (зрителям, достигшим 12 лет)
Продолжительность: 01:31:18
Качество видео: DVDRip
Видео: XviD, 720x448 (1.607), 25.000 fps, 2 083 Kbps (0.258 bpp)
Аудио: AC3, 2 ch, 192 Kbps

MediaInfo:

Общее
Полное имя : E:\Vysockij\22.1974 - Единственная дорога ... Солодов, один из шофёров\22 Единственная дорога 1974 DVDRip.avi
Формат : AVI
Формат/Информация : Audio Video Interleave
Размер файла : 1,46 Гбайт
Продолжительность : 1 ч. 31 м.
Общий поток : 2284 Кбит/сек
Программа кодирования : VirtualDubMod 1.5.10.3 | www.virtualdub-fr.org || (build 2550/release)
Библиотека кодирования : VirtualDubMod build 2550/release
Видео
Идентификатор : 0
Формат : MPEG-4 Visual
Профиль формата : Advanced Simple@L5
Настройки формата : BVOP1 / Custom Matrix
Параметр BVOP формата : 1
Параметр QPel формата : Нет
Параметр GMC формата : Без точки перехода
Параметр матрицы формата : Выборочная
Идентификатор кодека : XVID
Идентификатор кодека/Подсказка : XviD
Продолжительность : 1 ч. 31 м.
Битрейт : 2083 Кбит/сек
Ширина : 720 пикселей
Высота : 448 пикселей
Соотношение сторон : 16:10
Частота кадров : 25,000 кадров/сек
Цветовое пространство : YUV
Субдискретизация насыщенности : 4:2:0
Битовая глубина : 8 бит
Тип развёртки : Прогрессивная
Метод сжатия : С потерями
Бит/(Пиксели*Кадры) : 0.258
Размер потока : 1,33 Гбайт (91%)
Библиотека кодирования : XviD 1.2.1 (UTC 2008-12-04)
Аудио
Идентификатор : 1
Формат : AC-3
Формат/Информация : Audio Coding 3
Идентификатор кодека : 2000
Продолжительность : 1 ч. 31 м.
Вид битрейта : Постоянный
Битрейт : 192 Кбит/сек
Каналы : 2 канала
Расположение каналов : Front: L R
Частота : 48,0 КГц
Частота кадров : 31,250 кадров/сек (1536 SPF)
Битовая глубина : 16 бит
Метод сжатия : С потерями
Размер потока : 125 Мбайт (8%)
Выравнивание : Разделение по промежуткам
Продолжительность промежутка : 40 мс. (1,00 видеокадр)
Время предзагрузки промежутка : 500 мс.
ServiceKind/String : Complete Main
Скриншоты:

dybrik13 ®

Пол: Мужской

Стаж: 4 месяца 25 дней

Сообщений: 738

Репутация: 8285

[+] [-]

Откуда: Киев



Награды: 6 (Подробнее)

500 messages (Количество: 1) 500 releases (Количество: 1) Active moderator (Количество: 1)

Вне форума

[Профиль] [ЛС]

Создавать темы 14-Июл-2018 22:54 (спустя 35 секунд)

[Цитировать]

23.1975 - Бегство мистера Мак-Кинли ... Билл Сигер, певец:

Бегство мистера Мак-Кинли (1975) DVDRip- Производство: СССР / Мосфильм
Жанр: Фантастика, фэнтези
Режиссер: Михаил Швейцер
Актеры: Донатас Банионис, Жанна Болотова, Ангелина Степанова, Борис Бабочкин, Алла Демидова, Владимир Высоцкий, Александр Вокач, Софья Гаррель, Леонид Куравлёв, Татьяна Лаврова-В основу фильма-памфлета положена одноименная киноповесть Леонида Леонова, написанная им в 1962 году. Действие фильма происходит в одной из западных стран. Мелкий служащий Джейк Мак-Кинли не решается жениться на любимой девушке, понимая, что счастья его будущим детям в этом мире войн не будет. Он пытается проникнуть в сальваторий - некое фантастическое учреждение, в котором могут усыпить на какое угодно время, чтобы проснуться лет через двести-триста, когда на Земле будет спокойно. Однако, есть одна проблема: билет в сальваторий весьма недёшев...-Возраст: 12+ (зрителям, достигшим 12 лет)
Продолжительность: 02:32:36
Качество видео: DVDRip
Видео: XviD, 720x448 (1.607), 25.000 fps, 1 843 Kbps (0.229 bpp)
Аудио: AC3, 2 ch, 192 Kbps

MediaInfo:

Общее
Полное имя : E:\Vysockij\23.1975 - Бегство мистера Мак-Кинли ... Билл Сигер, певец\23 Бегство мистера Мак-Кинли 1975 DVDRip.avi
Формат : AVI
Формат/Информация : Audio Video Interleave
Профиль формата : OpenDML
Размер файла : 2,18 Гбайт
Продолжительность : 2 ч. 32 м.
Общий поток : 2047 Кбит/сек
Программа кодирования : VirtualDubMod 1.5.10.3 | www.virtualdub-fr.org || (build 2550/release)
Библиотека кодирования : VirtualDubMod build 2550/release
Видео
Идентификатор : 0
Формат : MPEG-4 Visual
Профиль формата : Advanced Simple@L5
Настройки формата : BVOP1 / Custom Matrix
Параметр BVOP формата : 1
Параметр QPel формата : Нет
Параметр GMC формата : Без точки перехода
Параметр матрицы формата : Выборочная
Идентификатор кодека : XVID
Идентификатор кодека/Подсказка : XviD
Продолжительность : 2 ч. 32 м.
Битрейт : 1843 Кбит/сек
Ширина : 720 пикселей
Высота : 448 пикселей
Соотношение сторон : 16:10
Частота кадров : 25,000 кадров/сек
Цветовое пространство : YUV
Субдискретизация насыщенности : 4:2:0
Битовая глубина : 8 бит
Тип развёртки : Прогрессивная
Метод сжатия : С потерями
Бит/(Пиксели*Кадры) : 0.229
Размер потока : 1,96 Гбайт (90%)
Библиотека кодирования : XviD 1.2.1 (UTC 2008-12-04)
Аудио
Идентификатор : 1
Формат : AC-3
Формат/Информация : Audio Coding 3
Идентификатор кодека : 2000
Продолжительность : 2 ч. 32 м.
Вид битрейта : Постоянный
Битрейт : 192 Кбит/сек
Каналы : 2 канала
Расположение каналов : Front: L R
Частота : 48,0 КГц
Частота кадров : 31,250 кадров/сек (1536 SPF)
Битовая глубина : 16 бит
Метод сжатия : С потерями
Размер потока : 210 Мбайт (9%)
Выравнивание : Разделение по промежуткам
Продолжительность промежутка : 40 мс. (1,00 видеокадр)
Время предзагрузки промежутка : 500 мс.
ServiceKind/String : Complete Main
Скриншоты:

24.1975 - Единственная ... Борис Ильич:

Единственная (1975) DVDRip- Производство: СССР / Ленфильм
Жанр: Драма, мелодрама, экранизация
Режиссер: Иосиф Хейфиц
Актеры: Валерий Золотухин, Елена Проклова, Людмила Гладунко, Владимир Высоцкий, Лариса Малеванная, Вячеслав Невинный ст., Любовь Соколова, Владимир Заманский, Михаил Кокшенов, Гелий Сысоев-По рассказу П. Нилина "Дурь". Вернувшись со срочной службы, герой фильма узнает от близких, что его любимая жена «погуливала». Он решает простить непутевой былые грехи — но счастье семейной жизни все равно оказывается недолгим. Молодой муж добивается развода, хотя жена твердит, что всегда любила только его. Он уверен, что поступает правильно, надеется на облегчение страданий. Однако его жизнь начинает идти как-то наперекосяк; ноги то и дело ведут к старому дому…-Продолжительность: 01:30:24
Качество видео: DVDRip
Видео: XviD, 720x384 (1.875), 25.000 fps, 1 852 Kbps (0.268 bpp)
Аудио: AC3, 6 ch, 448 Kbps

MediaInfo:

Общее
Полное имя : E:\Vysockij\24.1975 - Единственная ... Борис Ильич\24 Единственная 1975 DVDRip.avi
Формат : AVI
Формат/Информация : Audio Video Interleave
Размер файла : 1,46 Гбайт
Продолжительность : 1 ч. 30 м.
Общий поток : 2309 Кбит/сек
Программа кодирования : VirtualDubMod 1.5.10.3 | www.virtualdub-fr.org || (build 2550/release)
Библиотека кодирования : VirtualDubMod build 2550/release
Видео
Идентификатор : 0
Формат : MPEG-4 Visual
Профиль формата : Advanced Simple@L5
Настройки формата : BVOP1 / Custom Matrix
Параметр BVOP формата : 1
Параметр QPel формата : Нет
Параметр GMC формата : Без точки перехода
Параметр матрицы формата : Выборочная
Идентификатор кодека : XVID
Идентификатор кодека/Подсказка : XviD
Продолжительность : 1 ч. 30 м.
Битрейт : 1852 Кбит/сек
Ширина : 720 пикселей
Высота : 384 пикселя
Соотношение сторон : 1,85:1
Частота кадров : 25,000 кадров/сек
Цветовое пространство : YUV
Субдискретизация насыщенности : 4:2:0
Битовая глубина : 8 бит
Тип развёртки : Прогрессивная
Метод сжатия : С потерями
Бит/(Пиксели*Кадры) : 0.268
Размер потока : 1,17 Гбайт (80%)
Библиотека кодирования : XviD 1.2.1 (UTC 2008-12-04)
Аудио
Идентификатор : 1
Формат : AC-3
Формат/Информация : Audio Coding 3
Идентификатор кодека : 2000
Продолжительность : 1 ч. 30 м.
Вид битрейта : Постоянный
Битрейт : 448 Кбит/сек
Каналы : 6 каналов
Расположение каналов : Front: L C R, Side: L R, LFE
Частота : 48,0 КГц
Частота кадров : 31,250 кадров/сек (1536 SPF)
Битовая глубина : 16 бит
Метод сжатия : С потерями
Размер потока : 290 Мбайт (19%)
Выравнивание : Разделение по промежуткам
Продолжительность промежутка : 40 мс. (1,00 видеокадр)
Время предзагрузки промежутка : 500 мс.
ServiceKind/String : Complete Main
Скриншоты:

25.1976 - Сказ про то, как царь Петр арапа женил ... Ибрагим Ганнибал:

Сказ про то, как царь Петр арапа женил (1976) HDTVRip- Пpоизводство: СССР / Мосфильм, Второе творческое объединение
Режиссеp: Александр Митта
Актеpы: Владимир Высоцкий, Алексей Петренко, Олег Табаков, Иван Рыжов, Ирина Мазуркевич, Михаил Кокшенов, Евгений Митта, Семён Морозов, Валерий Золотухин, Михаил Глузский ...-Экранизация исторического романа Александра Сергеевича Пушкина «Арап Петра Великого». Однажды царю Петру был подарен маленький чернокожий принц – добрый и смышленый мальчуган. Быстро усвоив от Петра все науки, он был отправлен во Францию для получения более глубоких знаний и изысканных манер. Вернувшись из Парижа, на одном из балов арап влюбился в дочь богатого дворянина Наташу. Это явилось событием, которое изменило отношение к нему всего окружения Петра и самого царя. Но немилость только повод для поиска истины. Поэтому наградой за благородство и мужество стала арапу Наташина любовь, новое внимание света и Петра.-Возраст: 12+ (зрителям, достигшим 12 лет)
Продолжительноcть: 01:34:56
Качество видео: HDTVRip
Видео: XviD, 720x400 (16:9), 25.000 fps, 1 806 Kbps (0.251 bpp)
Аудио: AC3, 6 ch, 384 Kbps

MediaInfo:

Общее
Полное имя : E:\Vysockij\25.1976 - Сказ про то, как царь Петр арапа женил ... Ибрагим Ганнибал\25 Сказ про то, как царь Петр арапа женил 1976 HDTVRip.avi
Формат : AVI
Формат/Информация : Audio Video Interleave
Размер файла : 1,46 Гбайт
Продолжительность : 1 ч. 34 м.
Общий поток : 2199 Кбит/сек
Программа кодирования : VirtualDubMod 1.5.10.3 | www.virtualdub-fr.org || (build 2550/release)
Библиотека кодирования : VirtualDubMod build 2550/release
Видео
Идентификатор : 0
Формат : MPEG-4 Visual
Профиль формата : Advanced Simple@L5
Настройки формата : BVOP1 / Custom Matrix
Параметр BVOP формата : 1
Параметр QPel формата : Нет
Параметр GMC формата : Без точки перехода
Параметр матрицы формата : Выборочная
Идентификатор кодека : XVID
Идентификатор кодека/Подсказка : XviD
Продолжительность : 1 ч. 34 м.
Битрейт : 1806 Кбит/сек
Ширина : 720 пикселей
Высота : 400 пикселей
Соотношение сторон : 16:9
Частота кадров : 25,000 кадров/сек
Цветовое пространство : YUV
Субдискретизация насыщенности : 4:2:0
Битовая глубина : 8 бит
Тип развёртки : Прогрессивная
Метод сжатия : С потерями
Бит/(Пиксели*Кадры) : 0.251
Размер потока : 1,20 Гбайт (82%)
Библиотека кодирования : XviD 1.2.1 (UTC 2008-12-04)
Аудио
Идентификатор : 1
Формат : AC-3
Формат/Информация : Audio Coding 3
Идентификатор кодека : 2000
Продолжительность : 1 ч. 34 м.
Вид битрейта : Постоянный
Битрейт : 384 Кбит/сек
Каналы : 6 каналов
Расположение каналов : Front: L C R, Side: L R, LFE
Частота : 48,0 КГц
Частота кадров : 31,250 кадров/сек (1536 SPF)
Битовая глубина : 16 бит
Метод сжатия : С потерями
Размер потока : 261 Мбайт (17%)
Выравнивание : Разделение по промежуткам
Продолжительность промежутка : 40 мс. (1,00 видеокадр)
Время предзагрузки промежутка : 500 мс.
ServiceKind/String : Complete Main
Производство: СССР
Жанр: драма, комедия, приключения
Режиссер: различные в разных фильмах
Актеры: Владимир Высоцкий и другие-Владимир Семёнович Высоцкий — советский поэт, актёр и автор-исполнитель песен, автор прозаических произведений. Лауреат Государственной премии СССР (1987, посмертно).
Актёр Театра драмы и комедии на Таганке в Москве (1964—1980). Владимир Высоцкий сыграл более 20 ролей в театре. Многие его работы в кинематографе также полюбились зрителям. Владимир Высоцкий вошёл в историю как автор-исполнитель своих песен под русскую семиструнную гитару. По итогам опроса ВЦИОМ, проведённого в 2010 году, Высоцкий занял второе место в списке «кумиров XX века» после Юрия Гагарина.
Сам Высоцкий так говорил об авторской песне: "Я хочу сказать и заверить, что авторская песня требует очень большой работы. Эта песня все время живет с тобой, не дает тебе покоя ни днем, ни ночью."-Продолжительность: 38:02:20
Субтитры: отсутствуют

Скриншоты:

Скриншоты:

Скриншоты дополнительно:


Показать сообщения:    
Ответить на тему

Текущее время: 21-Ноя 06:25

Часовой пояс: UTC ± 0



Вы не можете начинать темы
Вы не можете отвечать на сообщения
Вы не можете редактировать свои сообщения
Вы не можете удалять свои сообщения
Вы не можете голосовать в опросах
Вы не можете прикреплять файлы к сообщениям
Вы не можете скачивать файлы